Marvel's Avengers Deluxe Edition (супер цена) 159р. Внимание количество ограничено!!!

2 сезон

iTunes

iTunes

1

iTunes

iTunes

iTunes

WEBRip

iTunes

30
pack

Новость дня

ВАЖНО

!!Акция!!

Alien_RageХит недели

RePack

Horizon Zero Dawn

ИГРА 18+

pack

RePack

jed

!!Акция!!

Alien_Rage

RePack

fifa19

RePack

Assassins Creed: Odyssey

RePack

NEED FOR SPEED™ PAYBACK

4 сезон

9 сезон

Бесстыжие 9 сезон

Все сериалы

все сериалы на PB.wtf

RePack

FAR CRY 5
  

Весёлые ребята;) (Алексей Бобров) [2014, комедия, WEB-DL 720p, Оригинальный] [iTunes] piratbit.pw

Весёлые ребята;) через торрент piratbit.pw

Размер: 2.94 GB | Добавлен: 5 лет 11 мес. назад | Торрент скачан:302 раза
Скачать  

05-10-2014 17:37 Весёлые ребята;) Скачать торрент  

Весёлые ребята;)


Год выпуска: 2014
Страна: Россия
Жанр:комедия
Продолжительность:01:32:13
Перевод:Оригинальный [iTunes]
Режиссер:Алексей Бобров

  • В ролях:

    Иван Дорн (Костя Потехин), Катерина Шпица (Аня), София Каштанова (Вера), Алексей Шевченков (Дэн), Евгений Тихомиров (Миша), Ола Кейру (Толик), Сергей Газаров (Виктор Купцов), Татьяна Лютаева (Римма Купцова), Алена Новицкая (Лера Купцова), Наталья Щукина (Нина Сергеевна), Андрей Рапопорт (Стас Михайлович), Дмитрий Власкин (Рифф)

  • Описание:
    Начинающий музыкант Костя Потехин, чтобы завоевать расположение красивой девушки, соглашается участвовать в музыкальном телевизионном конкурсе. Но участвовать нужно только со своей музыкальной группой, которой у него нет. За несколько дней ему предстоит собрать свою группу, найти надежных друзей и встретить настоящую любовь.

  • Мировая премьера:28 августа 2014

    Качество: WEB-DL 720p
    Формат:MKV
    Видео кодек: AVC
    Аудио кодек:AC3
    Видео: AVC, 1280x534 (2.40:1), 4085 kbps, 24 fps, 0,249 bpp
    Аудио: русский / AC3 / 5.1 / 48 kHz / 384 kbps / 16 bit ||
    Навигация по главам: есть


    Код:

    General
    Unique ID                                : 183089751883896077613748046910161767636 (0x89BDCDB6866F029C9A65384AD4194CD4)
    Complete name                            : D:\Торенты\Veselyie.rebyata.2014.WeBdl.720p.nnm-club.mkv
    Format                                   : Matroska
    Format version                           : Version 4 / Version 2
    File size                                : 2.94 GiB
    Duration                                 : 1h 32mn
    Overall bit rate                         : 4 560 Kbps
    Encoded date                             : UTC 2014-09-17 20:02:45
    Writing application                      : mkvmerge v6.9.1 ('Blue Panther') 64bit built on Apr 18 2014 18:23:38
    Writing library                          : libebml v1.3.0 + libmatroska v1.4.1

    Video
    ID                                       : 1
    Format                                   : AVC
    Format/Info                              : Advanced Video Codec
    Format profile                           : Main@L3.1
    Format settings, CABAC                   : No
    Format settings, ReFrames                : 2 frames
    Format settings, GOP                     : N=1
    Codec ID                                 : V_MPEG4/ISO/AVC
    Duration                                 : 1h 32mn
    Bit rate                                 : 4 086 Kbps
    Width                                    : 1 280 pixels
    Height                                   : 534 pixels
    Display aspect ratio                     : 2.40:1
    Frame rate                               : 24.000 fps
    Color space                              : YUV
    Chroma subsampling                       : 4:2:0
    Bit depth                                : 8 bits
    Scan type                                : Progressive
    Bits/(Pixel*Frame)                       : 0.249
    Stream size                              : 2.63 GiB (90%)
    Language                                 : English
    Default                                  : Yes
    Forced                                   : No
    Color primaries                          : BT.709-5, BT.1361, IEC 61966-2-4, SMPTE RP177
    Transfer characteristics                 : BT.709-5, BT.1361
    Matrix coefficients                      : BT.709-5, BT.1361, IEC 61966-2-4 709, SMPTE RP177

    Audio
    ID                                       : 2
    Format                                   : AC-3
    Format/Info                              : Audio Coding 3
    Mode extension                           : CM (complete main)
    Codec ID                                 : A_AC3
    Duration                                 : 1h 32mn
    Bit rate mode                            : Constant
    Bit rate                                 : 384 Kbps
    Channel(s)                               : 6 channels
    Channel positions                        : Front: L C R, Side: L R, LFE
    Sampling rate                            : 48.0 KHz
    Bit depth                                : 16 bits
    Compression mode                         : Lossy
    Stream size                              : 253 MiB (8%)
    Language                                 : Russian
    Default                                  : Yes
    Forced                                   : No

    Menu
    00:00:00.000                             : en:Глава 1
    00:05:37.000                             : en:Глава 2
    00:08:55.000                             : en:Глава 3
    00:13:01.000                             : en:Глава 4
    00:17:59.000                             : en:Глава 5
    00:23:29.000                             : en:Глава 6
    00:29:53.000                             : en:Глава 7
    00:35:55.000                             : en:Глава 8
    00:42:10.000                             : en:Глава 9
    00:48:22.000                             : en:Глава 10
    00:54:01.000                             : en:Глава 11
    01:00:01.000                             : en:Глава 12
    01:04:17.000                             : en:Глава 13
    01:08:52.000                             : en:Глава 14
    01:14:18.000                             : en:Глава 15
    01:18:56.000                             : en:Глава 16
    01:22:44.000                             : en:Глава 17

    Скриншоты:

    Каталог Новинок (Фильмы-трейлеры, Игры, Сериалы, Мультфильмы)


    © Оформление by Ravenpiratbit.pw



  • Скачать Весёлые ребята;) через торрент http://pic.kartinco.top/images/6/stazu.jpg Скачать фильм Весёлые ребята;) через торрент бесплантно в хорошем качестве Описание:Начинающий музыкант Костя Потехин, чтобы завоевать расположение красивой девушки, соглашается участвовать в музыкальном ... 6.7 10 10
    Торрент: Зарегистрирован [2014-10-05 17:37] · скачан: 302 раз
    Статус: T временная
    Размер: 2.94 GB
    Как cкачать? Как скачать Весёлые ребята;) через торрент | qTorrent

    % Раздел Тема Автор DL S | L
    Наши новые фильмы 2014 [ 741 MB ] Весёлые ребята;) [2014 WEB-DLRip-AVC] bober100 Скачать
    1 | 0
    Отечественная Поп музыка (lossless) [ 378 MB ] Веселые Ребята - Как прекрасен этот мир - 2013/ FLAC/ image+.cue/ lossless/ Pop sergej644 Скачать
    1 | 0
    Классика зарубежного кино [ 1.45 GB ] Веселые ребята / The Sunshine Boys [1975 HDRip] MVO koenig Скачать
    1 | 0
    Отечественная Поп музыка (mp3) [ 186 MB ] Весёлые ребята - Звёздная Серия 2000 / MP3 / 320 kbps / Советская эстрада Retro megatoxa Скачать
    1 | 0
    Наши фильмы (DVD фильмы) [ 4.11 GB ] Весёлые ребята [2014 DVD5] R5 voovaz Скачать
    1 | 0
    Отечественная Поп музыка (mp3) [ 191 MB ] Весёлые ребята - Ретроспектива 2014 / MP3 / 320 kbps / Pop megatoxa Скачать
    1 | 1
    Отечественная Поп музыка (lossless) [ 484 MB ] Веселые Ребята - Не волнуйтесь тетя - 2013/ FLAC/ image+.cue/ lossless/ Pop sergej644 Скачать
    1 | 0

    28-11-2019 20:33  

    Отключить всю рекламу на сайте

      Дорогой пользователь! Огромная просьба, поблагодарите релизера, оцените раздачу и оставьте свои комментарий, если Вы скачали Весёлые ребята;) через торрент бесплатно! Внесите свою лепту в развитие PiratBit!
      Комментировать посты могут только пользователи прошедшие не сложную регистрацию
      Показать сообщения:    

      Весёлые ребята;) через торрент
      Скачать бесплатно Весёлые ребята;)
      Весёлые ребята;) скачать торрент
      Весёлые ребята;) смотреть онлайн
      Cкачать фильм Весёлые ребята;) бесплатно
      Весёлые ребята;) скачать торрент в хорошем качестве
      Весёлые ребята;) смотреть онлайн бесплатно в хорошем качестве


      Вы не можете начинать темы
      Вы не можете отвечать на сообщения
      Вы не можете редактировать свои сообщения
      Вы не можете удалять свои сообщения
      Вы не можете голосовать в опросах
      Вы не можете прикреплять файлы к сообщениям
      Вы можете скачивать файлы