1 сезон

1 сезон

iTunes

1

КиноПоиск HD

Кинопоиск HD

iTunes

13

1 сезон

RePack

30

Новинка

ВАЖНО

ИГРА 18+

pack

RePack

MK11
pack

Легкие деньги

RePack

jed

RePack

fifa19

RePack

RDR2

RePack

NEED FOR SPEED™ PAYBACK

4 сезон

9 сезон

Бесстыжие 9 сезон

Все сериалы

все сериалы на PB.wtf

RePack

FAR CRY 5
  
Magnet ссылка

Рога / Horns (Александр Ажа) [2013, ужасы, фэнтези, триллер, WEB-DL 720p, Авторский (одноголосый)[Алексей Матвеев] piratbit.pw

Рога через торрент piratbit.pw

Размер: 4.02 GB | Добавлен: 6 лет 6 мес. назад | Торрент скачан:300 раз
Скачать  

04-10-2014 19:51 Рога Скачать торрент  

Рога / Horns
«Love hurts like hell»
Информация о фильме
Год выхода: 2013
Название: Рога
Оригинальное название: Horns
Выпущено: США, Канада / Red Granite Pictures, Mandalay Pictures
Озвучивание: Авторское (одноголосное) [Алексей Матвеев]
Субтитры: English
Жанр: ужасы, фэнтези, триллер, драма
Продолжительность: 01:59:55
Режиссер: Александр Ажа
В ролях: Джуно Темпл, Дэниэл Рэдклифф, Хэзер Грэм, Сабрина Карпентер, Келли Гарнер, Джо Андерсон, Макс Мингелла, Джеймс Римар, Дэвид Морс, Кэтлин Куинлен
Описание: История простого американского парня по имени Иг Перриш, который просыпается рано утром с диким похмельем и обнаруживает, что у него на голове выросли настоящие рога.
Вместе с рогами у героя появляется еще одно дьявольское качество: в присутствии Перриша люди начинают говорить то, что думают на самом деле, и все грязные секреты оказываются на поверхности. Теперь Иг может узнать, кто на самом деле убил его девушку, поскольку в этом преступлении обвиняют его самого, хоть и бездоказательно.

Файл
Качество: WEB-DL 720p
Формат: MKV
Видео кодек: AVC
Аудио кодек:AC3
Видео: 3833 Kb/s, 1280x532, 23,976 кадра/сек
Аудио: Russian : AC3, 384 Kb/s (6 ch) 48,0 КГц
Аудио: English: AC3, 384 Kb/s (6 ch) 48,0 КГц

Формат : Matroska
Версия формата : Version 4 / Version 2
Размер файла : 4,02 Гбайт
Продолжительность : 1 ч. 59 м.
Общий поток : 4797 Кбит/сек
Название фильма : RARBG.COM - Horns.2013.720p.WEB-DL.DD5.1.H264-RARBG
Дата кодирования : UTC 2014-10-04 17:09:51
Программа кодирования : mkvmerge v7.2.0 ('On Every Street') 64bit built on Sep 13 2014 15:52:10
Библиотека кодирования : libebml v1.3.0 + libmatroska v1.4.1
DURATION : 01:59:55.520000000
NUMBER_OF_FRAMES : 224860
NUMBER_OF_BYTES : 345384960
_STATISTICS_WRITING_APP : mkvmerge v7.2.0 ('On Every Street') 64bit built on Sep 13 2014 15:52:10
_STATISTICS_WRITING_DATE_UTC : 2014-10-04 17:09:51
_STATISTICS_TAGS : BPS DURATION NUMBER_OF_FRAMES NUMBER_OF_BYTES

Видео
Идентификатор : 1
Формат : AVC
Формат/Информация : Advanced Video Codec
Профиль формата : Main@L3.1
Параметр CABAC формата : Нет
Параметр ReFrames формата : 2 кадра
Идентификатор кодека : V_MPEG4/ISO/AVC
Продолжительность : 1 ч. 59 м.
Битрейт : 3933 Кбит/сек
Ширина : 1280 пикселей
Высота : 532 пикселя
Соотношение сторон : 2,40:1
Режим частоты кадров : Постоянный
Частота кадров : 23,976 кадра/сек
Цветовое пространство : YUV
Субдискретизация насыщенности : 4:2:0
Битовая глубина : 8 бит
Тип развёртки : Прогрессивная
Бит/(Пиксели*Кадры) : 0.241
Размер потока : 3,29 Гбайт (82%)
Заголовок : Horns.2013.720p.WEB-DL.DD5.1.H264-RARBG
Язык : English
Default : Да
Forced : Нет
Основные цвета : BT.709
Характеристики трансфера : BT.709
Коэффициенты матрицы : BT.709

Аудио #1
Идентификатор : 2
Формат : AC-3
Формат/Информация : Audio Coding 3
Расширение режима : CM (complete main)
Параметр Endianness формата : Big
Идентификатор кодека : A_AC3
Продолжительность : 1 ч. 59 м.
Вид битрейта : Постоянный
Битрейт : 384 Кбит/сек
Каналы : 6 каналов
Расположение каналов : Front: L C R, Side: L R, LFE
Частота : 48,0 КГц
Битовая глубина : 16 бит
Метод сжатия : С потерями
Размер потока : 329 Мбайт (8%)
Default : Да
Forced : Да

Аудио #2
Идентификатор : 3
Формат : AC-3
Формат/Информация : Audio Coding 3
Расширение режима : CM (complete main)
Параметр Endianness формата : Big
Идентификатор кодека : A_AC3
Продолжительность : 1 ч. 59 м.
Вид битрейта : Постоянный
Битрейт : 384 Кбит/сек
Каналы : 6 каналов
Расположение каналов : Front: L C R, Side: L R, LFE
Частота : 48,0 КГц
Битовая глубина : 16 бит
Метод сжатия : С потерями
Размер потока : 329 Мбайт (8%)
Заголовок : Horns.2013.720p.WEB-DL.DD5.1.H264-RARBG
Язык : English
Default : Нет
Forced : Нет

Текст
Идентификатор : 4
Формат : UTF-8
Идентификатор кодека : S_TEXT/UTF8
Идентификатор кодека/Информация : UTF-8 Plain Text
Язык : English
Default : Нет
Forced : Нет

Меню
00:00:00.000 : en:Chapter 01
00:06:52.000 : en:Chapter 02
00:13:50.000 : en:Chapter 03
00:20:52.000 : en:Chapter 04
00:29:12.000 : en:Chapter 05
00:36:16.000 : en:Chapter 06
00:43:37.000 : en:Chapter 07
00:53:09.000 : en:Chapter 08
01:01:24.000 : en:Chapter 09
01:09:49.000 : en:Chapter 10
01:16:41.000 : en:Chapter 11
01:23:55.000 : en:Chapter 12
01:32:14.000 : en:Chapter 13
01:38:55.000 : en:Chapter 14
01:49:05.000 : en:Chapter 15
01:52:21.000 : en:Chapter 16

piratbit.pw



Скачать Рога через торрент http://i66.fastpic.ru/big/2014/1004/38/23c8639f3f22dfebff67c0eb8f2c5338.png Скачать фильм Рога через торрент бесплантно в хорошем качестве Описание: История простого американского парня по имени Иг Перриш, который просыпается рано утром с диким похмельем и обнаруживает, что у ... 8.2 10 6
Торрент: Зарегистрирован [2014-10-04 19:51] · скачан: 300 раз
Статус: √ проверено
Размер: 4.02 GB
Как cкачать? Как скачать Рога через торрент | UTorrent

% Раздел Тема Автор DL S | L
Фильмы 2013 [DVDrip, WEB-DLRip, HDrip] [ 2.18 GB ] Рога / Horns [2013 BDRip-AVC] MVO [] potroks Скачать
1 | 0
Фильмы 2013 [DVDrip, WEB-DLRip, HDrip] [ 2.91 GB ] Рога / Horns [2013 BDRip-AVC от sokol_ok] MVO [] sokol_ok Скачать
2 | 0
Фильмы 2013 [DVDrip, WEB-DLRip, HDrip] [ 1.41 GB ] Рога / Horns [2013 WEB-DLRip-AVC] Авторский От R.G. PiratFilms White Smoke Скачать
1 | 0
Фильмы 2013 [DVDrip, WEB-DLRip, HDrip] [ 1.37 GB ] Рога / Horns [2013 HDRip [] Ворон Скачать
1 | 0
Фильмы 2013 [DVDrip, WEB-DLRip, HDrip] [ 2.18 GB ] Рога / Horns [2013 HDRip многоголосый закадровый "'] coc900 Скачать
1 | 0
Фильмы 2013 [DVDrip, WEB-DLRip, HDrip] [ 1.46 GB ] Рога / Horns [2013 BDRip-AVC от sokol_ok] MVO [] sokol_ok Скачать
2 | 0
Фильмы (Blu-ray, BD-Remux, HDDVD) [ 40.14 GB ] Рога / Horns [2013 Blu-Ray] MVO AVO Russian Mafia Скачать
1 | 0

28-11-2019 20:33  

Отключить всю рекламу на сайте

05-10-2014 07:07 Рога Скачать торрент  

Джуно Темпл - милашечка, люблю её. Да ещё и Хэзер Грэм. Качаю и кончаю.piratbit.pw



05-10-2014 07:13 Рога Скачать торрент  

очень даже неплохой такой мистический детективчик-сюжет и эффекты на уровнеpiratbit.pw



    Дорогой пользователь! Огромная просьба, поблагодарите релизера, оцените раздачу и оставьте свои комментарий, если Вы скачали Рога через торрент бесплатно! Внесите свою лепту в развитие PiratBit!
    Комментировать посты могут только пользователи прошедшие не сложную регистрацию
    Показать сообщения:    

    Рога через торрент
    Скачать бесплатно Рога
    Рога скачать торрент
    Рога смотреть онлайн
    Cкачать фильм Рога бесплатно
    Рога скачать торрент в хорошем качестве
    Рога смотреть онлайн бесплатно в хорошем качестве


    Вы не можете начинать темы
    Вы не можете отвечать на сообщения
    Вы не можете редактировать свои сообщения
    Вы не можете удалять свои сообщения
    Вы не можете голосовать в опросах
    Вы не можете прикреплять файлы к сообщениям
    Вы можете скачивать файлы