1 сезон

3 сезон

iTunes

1

iTunes

DUB Netflix

iTunes

13

1 сезон

RePack

30

Deluxe

pack

Легкие деньги

ВАЖНО

ИГРА 18+

pack

RePack

MK11

RePack

jed

RePack

fifa19

RePack

RDR2

RePack

NEED FOR SPEED™ PAYBACK

4 сезон

9 сезон

Бесстыжие 9 сезон

Все сериалы

все сериалы на PB.wtf

RePack

FAR CRY 5

Anonymous, добрый вечер, мы не успеваем до 1 числа собрать деньги на оплату серверов, помогите нам пожалуйста в это трудное время. В качестве благодарности мы отключим Вам всю рекламу на сайте (укажите свой ник в строку Ваше имя)!

×
  
Magnet ссылка

Божий карман / God's Pocket (Джон Слэттери / John Slattery) [2014, США, драма, HDRip, Любительский (двухголосый)["HamsterStudio"] piratbit.pw

Божий карман через торрент piratbit.pw

Размер: 1.37 GB | Добавлен: 6 лет 8 мес. назад | Торрент скачан:181 раз
Скачать  

04-10-2014 01:17 Божий карман Скачать торрент  

Божий карман / God's Pocket
«The only thing they can't forgive is not being from ... God's Pocket»


  • Год выпуска: 2014
  • Страна: США
  • Жанр: драма
  • Продолжительность: 01:28:40
  • Перевод: Любительский (двухголосый)["HamsterStudio"]

  • Режиссер: Джон Слэттери / John Slattery
  • В ролях:

    Филип Сеймур Хоффман (Mickey Scarpato), Ричард Дженкинс (Richard Shellburn), Кристина Хендрикс (Jeanie Scarpato), Джон Туртурро (Arthur «Bird» Capezio), Эдди Марсан (Smilin' Jack Moran), Калеб Лэндри Джонс (Leon Hubbard), Джек О’Коннелл (Mole Ferrell), Билл Бюэлл (Ray), Ребекка Клинг (Fat Pat), Дэвид Аписелла (Priest), Бриджет Бэркэн (Joyce), Майкл Дрэйер (Danny)

  • Описание:
    Когда сумасшедший пасынок Микки по имени Леон погибает из-за несчастного случая, никто из живущих по соседству не скорбит о нем. Микки пытается похоронить плохие новости вместе с его телом, но все усложняется, когда мать мальчика решает выяснить всю правду о случившемся...
  • Рейтинг:



  • Качество: HDRip
  • Формат: :AVI
  • Видео кодек: XviD
  • Аудио кодек: AC3
  • Видео: 720x304 (2.35:1), 1749 kbps, 23,976 fps, 0,333 bpp
  • Аудио: 5.1 / 48 kHz / 448 kbps / 16 bit
  • Релиз от: GEKADOL

    Код:

    General
    Complete name                            : I:\Bozhij.karman.2014.L2.HDRip.1400MB.avi
    Format                                   : AVI
    Format/Info                              : Audio Video Interleave
    File size                                : 1.37 GiB
    Duration                                 : 1h 28mn
    Overall bit rate                         : 2 206 Kbps
    Writing application                      : VirtualDubMod 1.5.10.2 (build 2540/release)
    Writing library                          : VirtualDubMod build 2540/release

    Video
    ID                                       : 0
    Format                                   : MPEG-4 Visual
    Format profile                           : Advanced Simple@L5
    Format settings, BVOP                    : 2
    Format settings, QPel                    : No
    Format settings, GMC                     : No warppoints
    Format settings, Matrix                  : Custom
    Codec ID                                 : XVID
    Codec ID/Hint                            : XviD
    Duration                                 : 1h 28mn
    Bit rate                                 : 1 749 Kbps
    Width                                    : 720 pixels
    Height                                   : 304 pixels
    Display aspect ratio                     : 2.35:1
    Frame rate                               : 23.976 fps
    Color space                              : YUV
    Chroma subsampling                       : 4:2:0
    Bit depth                                : 8 bits
    Scan type                                : Progressive
    Compression mode                         : Lossy
    Bits/(Pixel*Frame)                       : 0.333
    Stream size                              : 1.08 GiB (79%)
    Writing library                          : XviD 1.2.1 (UTC 2008-12-04)

    Audio
    ID                                       : 1
    Format                                   : AC-3
    Format/Info                              : Audio Coding 3
    Mode extension                           : CM (complete main)
    Codec ID                                 : 2000
    Duration                                 : 1h 28mn
    Bit rate mode                            : Constant
    Bit rate                                 : 448 Kbps
    Channel(s)                               : 6 channels
    Channel positions                        : Front: L C R, Side: L R, LFE
    Sampling rate                            : 48.0 KHz
    Bit depth                                : 16 bits
    Compression mode                         : Lossy
    Stream size                              : 284 MiB (20%)
    Alignment                                : Split accross interleaves
    Interleave, duration                     : 42 ms (1.00 video frame)
    Interleave, preload duration             : 500 ms


    Скриншоты:


    piratbit.pw



  • Скачать Божий карман через торрент http://i67.fastpic.ru/big/2014/1004/f3/dc973b687764b33aa3e2b96d4d1b0ef3.jpg Скачать фильм Божий карман через торрент бесплантно в хорошем качестве Описание: Когда сумасшедший пасынок Микки по имени Леон погибает из-за несчастного случая, никто из живущих по соседству не скорбит о нем. ... 8.7 10 3
    Торрент: Зарегистрирован [2014-10-04 01:17] · скачан: 181 раз
    Статус: T временная
    Размер: 1.37 GB
    Как cкачать? Как скачать Божий карман через торрент | UTorrent

    28-11-2019 20:33  

    Отключить всю рекламу на сайте

    05-10-2014 17:32 Божий карман Скачать торрент  

    Спасибо, актёры хорошие, надо посмотретьpiratbit.pw



      Дорогой пользователь! Огромная просьба, поблагодарите релизера, оцените раздачу и оставьте свои комментарий, если Вы скачали Божий карман через торрент бесплатно! Внесите свою лепту в развитие PiratBit!
      Комментировать посты могут только пользователи прошедшие не сложную регистрацию
      Показать сообщения:    

      Божий карман через торрент
      Скачать бесплатно Божий карман
      Божий карман скачать торрент
      Божий карман смотреть онлайн
      Cкачать фильм Божий карман бесплатно
      Божий карман скачать торрент в хорошем качестве
      Божий карман смотреть онлайн бесплатно в хорошем качестве


      Вы не можете начинать темы
      Вы не можете отвечать на сообщения
      Вы не можете редактировать свои сообщения
      Вы не можете удалять свои сообщения
      Вы не можете голосовать в опросах
      Вы не можете прикреплять файлы к сообщениям
      Вы можете скачивать файлы