1 сезон

1 сезон

iTunes

1

iTunes

Кинопоиск HD

iTunes

13

1 сезон

RePack

30

Deluxe

ВАЖНО

ИГРА 18+

pack

RePack

MK11
pack

Легкие деньги

RePack

jed

RePack

fifa19

RePack

RDR2

RePack

NEED FOR SPEED™ PAYBACK

4 сезон

9 сезон

Бесстыжие 9 сезон

Все сериалы

все сериалы на PB.wtf

RePack

FAR CRY 5
  
Magnet ссылка

Телепорт / Jumper (Даг Лайман / Doug Liman) [2008, США, Канада, фантастика, боевик, триллер, BDRip] DUB Лицензия piratbit.pw

Телепорт через торрент piratbit.pw

Размер: 2.06 GB | Добавлен: 6 лет 7 мес. назад | Торрент скачан:460 раз
Скачать  

29-09-2014 19:33 Телепорт Скачать торрент  

Телепорт / Jumper«Где угодно. Когда угодно. Мгновенно»
Год выпуска: 2008
Страна: США, Канада
Жанр: фантастика, боевик, триллер, приключения
Продолжительность: 01:28:20
Перевод: Дубляж - [Лицензия] + авторский одноголосый (А. Гаврилов, Ю. Немахов)
Субтитры: Отсутствует
Режиссер: Даг Лайман / Doug Liman
В ролях:


Хейден Кристенсен (David Rice), Джейми Белл (Griffin), Рэйчел Билсон (Millie), Дайан Лэйн (Mary Rice), Сэмюэл Л. Джексон (Roland), Майкл Рукер (William Rice), Анна-София Робб (Young Millie), Макс Тириот (Young David), Джесси Джеймс (Young Mark), Том Халс (Mr. Bowker), Кристен Стюарт (Sophie), Тедди Данн (Mark Kobold)

Описание:
Подросток из неблагополучного района Дэвид Райс всегда считал себя обычным парнем, пока однажды он не узнал, что он может телепортироваться с места на место. Новые способности открыли перед ним весь мир. Он может побывать в Нью-Йорке и Токио, посетить античные развалины в Риме, увидеть «крышу мира» с горы Эверест, увидеть 20 рассветов и 20 закатов. И все - в один день.
Теперь ему не нужны деньги - он может взять сколько хочет. Однако в один момент он обнаруживает, что стал мишенью. На него, как и на других подобных ему, объявлена охота. На протяжении тысячи лет тайное общество стремится уничтожить их. Вскоре Дэвид узнает истинную ценность его новых способностей.

Рейтинг:
Бюджет:$85 000 000
MPAA: PG-13 - Детям до 13 лет просмотр не желателен
Качество: BDRip
Формат: AVI
Видео кодек:XviD
Аудио кодек:AC3
Видео: XviD, 704x400 (16:9), 1982 kbps, 23,976 fps, 0,294 bpp
Аудио №1: AC3 / 5.1 / 48 kHz / 448 kbps / 16 bit - Дубляж (BD CEE)
Аудио №2: AC3 / 5.1 / 48 kHz / 448 kbps / 16 bit - AVO, А. Гаврилов
Аудио №3: AC3 / 5.1 / 48 kHz / 448 kbps / 16 bit - AVO, Ю. Немахов


General
Complete name : D:\Users\_KaisiK_\uTorrent\КИНО\Jumper.2008.BDRip.avi
Format : AVI
Format/Info : Audio Video Interleave
Format profile : OpenDML
File size : 2.06 GiB
Duration : 1h 28mn
Overall bit rate : 3 345 Kbps
Movie name : Телепорт / Jumper (2008) BDRip
Genre : Фантастика, боевик, приключения
Recorded date : 28.05.2014
Writing application : VirtualDubMod 1.5.10.3 | www.virtualdub-fr.org || (build 2550/release)
Writing library : VirtualDubMod build 2550/release
Copyright : rip by ivandubskoj

Video
ID : 0
Format : MPEG-4 Visual
Format profile : Advanced Simple@L5
Format settings, BVOP : 1
Format settings, QPel : No
Format settings, GMC : No warppoints
Format settings, Matrix : Default (MPEG)
Codec ID : XVID
Codec ID/Hint : XviD
Duration : 1h 28mn
Bit rate : 1 982 Kbps
Width : 704 pixels
Height : 400 pixels
Display aspect ratio : 16:9
Frame rate : 23.976 fps
Color space : YUV
Chroma subsampling : 4:2:0
Bit depth : 8 bits
Scan type : Progressive
Compression mode : Lossy
Bits/(Pixel*Frame) : 0.294
Stream size : 1.22 GiB (59%)
Writing library : XviD 73

Audio #1
ID : 1
Format : AC-3
Format/Info : Audio Coding 3
Mode extension : CM (complete main)
Codec ID : 2000
Duration : 1h 28mn
Bit rate mode : Constant
Bit rate : 448 Kbps
Channel(s) : 6 channels
Channel positions : Front: L C R, Side: L R, LFE
Sampling rate : 48.0 KHz
Bit depth : 16 bits
Compression mode : Lossy
Stream size : 283 MiB (13%)
Alignment : Split accross interleaves
Interleave, duration : 64 ms (1.53 video frames)
Interleave, preload duration : 500 ms
Title : Russian (DUB, BD CEE)

Audio #2
ID : 2
Format : AC-3
Format/Info : Audio Coding 3
Mode extension : CM (complete main)
Codec ID : 2000
Duration : 1h 28mn
Bit rate mode : Constant
Bit rate : 448 Kbps
Channel(s) : 6 channels
Channel positions : Front: L C R, Side: L R, LFE
Sampling rate : 48.0 KHz
Bit depth : 16 bits
Compression mode : Lossy
Stream size : 283 MiB (13%)
Alignment : Split accross interleaves
Interleave, duration : 64 ms (1.53 video frames)
Interleave, preload duration : 500 ms
Title : Russian (AVO, А. Гаврилов)

Audio #3
ID : 3
Format : AC-3
Format/Info : Audio Coding 3
Mode extension : CM (complete main)
Codec ID : 2000
Duration : 1h 28mn
Bit rate mode : Constant
Bit rate : 448 Kbps
Channel(s) : 6 channels
Channel positions : Front: L C R, Side: L R, LFE
Sampling rate : 48.0 KHz
Bit depth : 16 bits
Compression mode : Lossy
Stream size : 283 MiB (13%)
Alignment : Split accross interleaves
Interleave, duration : 64 ms (1.53 video frames)
Interleave, preload duration : 500 ms
Title : Russian (AVO, Ю. Немахов)

[/code]
piratbit.pw



Скачать Телепорт через торрент http://i1.imageban.ru/out/2014/09/29/6a824dfdb0840f8b1636c719d73f461d.jpg Скачать фильм Телепорт через торрент бесплантно в хорошем качестве Описание: Подросток из неблагополучного района Дэвид Райс всегда считал себя обычным парнем, пока однажды он не узнал, что он может ... 9.6 10 9
Info! Серебряная раздача, засчитывается только 50% скачанного.
Торрент: Зарегистрирован [2014-09-29 19:33] · скачан: 460 раз
Статус: √ проверено
Размер: 2.06 GB
Как cкачать? Как скачать Телепорт через торрент | UTorrent

28-11-2019 20:33  

Отключить всю рекламу на сайте

20-01-2016 20:03 Телепорт Скачать торрент  

Этот фильм встал для меня наряду с "Назад в Будущее". Я готов смотреть его постоянно. Очень интересный сюжет.piratbit.pw



    Дорогой пользователь! Огромная просьба, поблагодарите релизера, оцените раздачу и оставьте свои комментарий, если Вы скачали Телепорт через торрент бесплатно! Внесите свою лепту в развитие PiratBit!
    Комментировать посты могут только пользователи прошедшие не сложную регистрацию
    Показать сообщения:    

    Телепорт через торрент
    Скачать бесплатно Телепорт
    Телепорт скачать торрент
    Телепорт смотреть онлайн
    Cкачать фильм Телепорт бесплатно
    Телепорт скачать торрент в хорошем качестве
    Телепорт смотреть онлайн бесплатно в хорошем качестве


    Вы не можете начинать темы
    Вы не можете отвечать на сообщения
    Вы не можете редактировать свои сообщения
    Вы не можете удалять свои сообщения
    Вы не можете голосовать в опросах
    Вы не можете прикреплять файлы к сообщениям
    Вы можете скачивать файлы