1 сезон

1 сезон

iTunes

1

КиноПоиск HD

Кинопоиск HD

iTunes

13

1 сезон

RePack

30

Новинка

ВАЖНО

ИГРА 18+

pack

RePack

MK11
pack

Легкие деньги

RePack

jed

RePack

fifa19

RePack

RDR2

RePack

NEED FOR SPEED™ PAYBACK

4 сезон

9 сезон

Бесстыжие 9 сезон

Все сериалы

все сериалы на PB.wtf

RePack

FAR CRY 5
  
Magnet ссылка

Грань будущего / Edge of Tomorrow (Даг Лайман) [2014 г., фантастика, боевик, HDRip, Авторский одноголосый Д.Есарев] piratbit.pw

Грань будущего через торрент piratbit.pw

Размер: 2.19 GB | Добавлен: 6 лет 6 мес. назад | Торрент скачан:57 раз
Скачать  

28-09-2014 16:58 Грань будущего Скачать торрент  

Грань будущего / Edge of Tomorrow
Год выпуска: 2014
Страна: США, Австралия / Warner Bros., Village Roadshow Pictures, 3 Arts Entertainment
Жанр: фантастика, боевик
Продолжительность: 01:53:29
Перевод: Авторский одноголосый (Д.Есарев)

Режиссер: Даг Лайман

В ролях: Том Круз, Эмили Блант, Брендан Глисон, Билл Пэкстон, Джонас Армстронг, Тони Вэй, Кик Гарри, Франц Драмех, Драгомир Мрсич, Шарлотта Райли

Описание: В недалёком будущем раса инопланетян вторгается на Землю. Никакая армия в мире не может противостоять им. Майор Уильям Кейдж умирает в бою, но случается невозможное — он оказывается во временной петле. Раз за разом он попадает в один и тот же бой, сражается и умирает… снова и снова. И каждое повторяющееся сражение приближает его к разгадке того, как победить врага.

Качество: HDRip
Формат: AVI
Видео кодек: XviD
Аудио кодек: AC3
Видео: MPEG4, XviD, 720x304 (2.35:1), 23.976 fps, 2 302 Kbps (0.439 bit/pixel)
Аудио: AC-3, 48.0 KHz, 6 ch, 448 Kbps, CBR


Общее
Полное имя : G:\кино\Edge of Tomorrow.2014.HDRip.avi
Формат : AVI
Формат/Информация : Audio Video Interleave
Профиль формата : OpenDML
Размер файла : 2,19 Гбайт
Продолжительность : 1 ч. 53 м.
Общий поток : 2762 Кбит/сек
Программа кодирования : VirtualDubMod 1.5.10.3 | www.virtualdub-fr.org || (build 2550/release)
Библиотека кодирования : VirtualDubMod build 2550/release

Видео
Идентификатор : 0
Формат : MPEG-4 Visual
Профиль формата : Advanced Simple@L5
Параметр BVOP формата : 2
Параметр QPel формата : Нет
Параметр GMC формата : Без точки перехода
Параметр матрицы формата : Default (H.263)
Идентификатор кодека : XVID
Идентификатор кодека/Подсказка : XviD
Продолжительность : 1 ч. 53 м.
Битрейт : 2302 Кбит/сек
Ширина : 720 пикселей
Высота : 304 пикселя
Соотношение сторон : 2,35:1
Частота кадров : 23,976 кадра/сек
Цветовое пространство : YUV
Субдискретизация насыщенности : 4:2:0
Битовая глубина : 8 бит
Тип развёртки : Прогрессивная
Метод сжатия : С потерями
Бит/(Пиксели*Кадры) : 0.439
Размер потока : 1,83 Гбайт (83%)
Библиотека кодирования : XviD 1.2.1 (UTC 2008-12-04)

Аудио
Идентификатор : 1
Формат : AC-3
Формат/Информация : Audio Coding 3
Расширение режима : CM (complete main)
Параметр Endianness формата : Big
Идентификатор кодека : 2000
Продолжительность : 1 ч. 53 м.
Вид битрейта : Постоянный
Битрейт : 448 Кбит/сек
Каналы : 6 каналов
Расположение каналов : Front: L C R, Side: L R, LFE
Частота : 48,0 КГц
Битовая глубина : 16 бит
Метод сжатия : С потерями
Размер потока : 364 Мбайт (16%)
Выравнивание : Разделение по промежуткам
Продолжительность промежутка : 42 мс. (1,00 видеокадр)
Время предзагрузки промежутка : 500 мс.

piratbit.pw



Скачать Грань будущего через торрент https://pic.kartinco.top/images/7/qe3l8.jpg Скачать фильм Грань будущего через торрент бесплантно в хорошем качестве Описание: В недалёком будущем раса инопланетян вторгается на Землю. Никакая армия в мире не может противостоять им. Майор Уильям Кейдж ... 10 10 2
Торрент: Зарегистрирован [2014-09-28 16:58] · скачан: 57 раз
Статус: √ проверено
Размер: 2.19 GB
Как cкачать? Как скачать Грань будущего через торрент | UTorrent

% Раздел Тема Автор DL S | L
Фильмы (HD 720p, 1080p) (48-60 fps) [ 3.69 GB ] Грань будущего / Edge of Tomorrow [2014 BDRip - HEVC 1080p 10 bit 60 FPS DUB] dd2d3 Скачать
6 | 1
Фильмы (HD 720p, 1080p) (48-60 fps) [ 9.47 GB ] Грань будущего / Edge of Tomorrow [2014 BDRip 1080p 60fps от еnvy / NNNB] DUB еnvy Скачать
2 | 0
Фильмы (HD 720p, 1080p) (48-60 fps) [ 4.92 GB ] Грань будущего / Edge of Tomorrow [2014 BDRip 720p / 60 fps] DUB еnvy Скачать
1 | 0
Фильмы (HD 720p, 1080p) (48-60 fps) [ 4.29 GB ] Грань будущего / Edge of Tomorrow [2014 BDRip-HEVC 720p / 60 FPS Dub Original] Tiberiumsun69 Скачать
29 | 0
Фильмы [HD 720p, 1080p] (Хороший звук DUB, MVO) [ 6.78 GB ] Грань будущего / Edge of Tomorrow [2014 BDRip-HEVC 1080p ] DUB [] bober100 Скачать
1 | 0
3D Видео (48-60 fps) [ 13.7 GB ] Грань будущего / Edge of Tomorrow [2014 Австралия 3D BDRip 1080p / 60 FPS Горизонтальная анаморфная стереопара ] Tiberiumsun69 Скачать
1 | 0
Ultra HD (UHD: 2K, 4K, 8K) — видео сверхвысокой чёткости [ 34.35 GB ] Грань будущего / Edge of Tomorrow [2014 UHD WEB-DL 2160p] 3xAVO+DUB [] bober100 Скачать
1 | 0

28-11-2019 20:33  

Отключить всю рекламу на сайте

28-09-2014 20:28 Грань будущего Скачать торрент  

После всех новинок этого года (Люди ..., Чел. пздюк... и других подобных), этот фильм на первом месте, просто круть!!!!!!!!piratbit.pw



    Дорогой пользователь! Огромная просьба, поблагодарите релизера, оцените раздачу и оставьте свои комментарий, если Вы скачали Грань будущего через торрент бесплатно! Внесите свою лепту в развитие PiratBit!
    Комментировать посты могут только пользователи прошедшие не сложную регистрацию
    Показать сообщения:    

    Грань будущего через торрент
    Скачать бесплатно Грань будущего
    Грань будущего скачать торрент
    Грань будущего смотреть онлайн
    Cкачать фильм Грань будущего бесплатно
    Грань будущего скачать торрент в хорошем качестве
    Грань будущего смотреть онлайн бесплатно в хорошем качестве


    Вы не можете начинать темы
    Вы не можете отвечать на сообщения
    Вы не можете редактировать свои сообщения
    Вы не можете удалять свои сообщения
    Вы не можете голосовать в опросах
    Вы не можете прикреплять файлы к сообщениям
    Вы можете скачивать файлы