1 сезон

3 сезон

iTunes

1

iTunes

DUB Netflix

iTunes

13

1 сезон

RePack

30

Deluxe

pack

Легкие деньги

ВАЖНО

ИГРА 18+

pack

RePack

MK11

RePack

jed

RePack

fifa19

RePack

RDR2

RePack

NEED FOR SPEED™ PAYBACK

4 сезон

9 сезон

Бесстыжие 9 сезон

Все сериалы

все сериалы на PB.wtf

RePack

FAR CRY 5

Anonymous, доброе утро, мы не успеваем до 1 числа собрать деньги на оплату серверов, помогите нам пожалуйста в это трудное время. В качестве благодарности мы отключим Вам всю рекламу на сайте (укажите свой ник в строку Ваше имя)!

×
  
Magnet ссылка

Восхождение Сокола / Falcon Rising (Эрни Барбараш) [2014, боевик, приключения, WEB-DLRip, Любительский (одноголосый)[R.A.I.M] piratbit.pw

Восхождение Сокола через торрент piratbit.pw

Размер: 683 MB | Добавлен: 6 лет 8 мес. назад | Торрент скачан:229 раз
Скачать  

28-09-2014 09:58 Восхождение Сокола Скачать торрент  

Восхождение Сокола / Falcon Rising


Год выпуска: 2014
Страна: США
Жанр:боевик, приключения
Продолжительность:01:40:58
Перевод:Любительский (одноголосый) [R.A.I.M], перевод М. [Васильев]
Режиссер:Эрни Барбараш

  • В ролях:

    Нил МакДонаф (Manny Ridley), Майкл Джей Уайт (John «Falcon» Chapman), Лайла Али (Cindy Chapman), Милли Руперто (Katarina Da' Silva), Латиф Кроудер (Carlo Bororo), Хазуки Като (Tomoe), Масаси Одате (Hirimoto), Daniel Cardona (Kuka), Жасмин Каратини (Nurse), Джонни Янг (Yakuza Guard), Robert Colon (Police Officer), Майкл Дж. Моррис (Businessman)

  • Описание:
    Джон Чепмен по кличке «Сокол» отправляется в Бразилию, чтобы выследить убийц своей сестры. В процессе поисков он сталкивается с контролируемым японской мафией подпольным миром наркотиков, проституции и продажных полицейских.

  • Мировая премьера:5 сентября 2014

    Качество: WEB-DLRip
    Формат:MKV
    Видео кодек: XviD
    Аудио кодек:MP3
    Видео: XviD, 720x384 (1.875), 799 kbps, 23,976 fps, 0,121 bpp
    Аудио: MP3 / 2.0 / 48 kHz / 128 kbps /


    Код:

    General
    Unique ID                                : 180520323944777582521227908069216739513 (0x87CEF32286A01C2480F8649A265FE0B9)
    Complete name                            : D:\Торенты\Falcon.Rising.2014.L1.WEB-DLRip.700MB.avi
    Format                                   : Matroska
    Format version                           : Version 4 / Version 2
    File size                                : 683 MiB
    Duration                                 : 1h 40mn
    Overall bit rate                         : 946 Kbps
    Encoded date                             : UTC 2014-09-28 01:45:31
    Writing application                      : mkvmerge v7.2.0 ('On Every Street') 32bit built on Sep 13 2014 15:42:11
    Writing library                          : libebml v1.3.0 + libmatroska v1.4.1
    DURATION                                 : 01:40:58.608000000
    NUMBER_OF_FRAMES                         : 252442
    NUMBER_OF_BYTES                          : 96937728
    _STATISTICS_WRITING_APP                  : mkvmerge v7.2.0 ('On Every Street') 32bit built on Sep 13 2014 15:42:11
    _STATISTICS_WRITING_DATE_UTC             : 2014-09-28 01:45:31
    _STATISTICS_TAGS                         : BPS DURATION NUMBER_OF_FRAMES NUMBER_OF_BYTES

    Video
    ID                                       : 1
    Format                                   : MPEG-4 Visual
    Format profile                           : Advanced Simple@L5
    Format settings, BVOP                    : Yes
    Format settings, QPel                    : No
    Format settings, GMC                     : No warppoints
    Format settings, Matrix                  : Default (H.263)
    Codec ID                                 : XVID
    Codec ID/Hint                            : XviD
    Duration                                 : 1h 40mn
    Bit rate                                 : 799 Kbps
    Width                                    : 720 pixels
    Height                                   : 384 pixels
    Display aspect ratio                     : 1.875
    Frame rate                               : 23.976 fps
    Color space                              : YUV
    Chroma subsampling                       : 4:2:0
    Bit depth                                : 8 bits
    Scan type                                : Progressive
    Compression mode                         : Lossy
    Bits/(Pixel*Frame)                       : 0.121
    Stream size                              : 577 MiB (84%)
    Writing library                          : XviD 1.2.1 (UTC 2008-12-04)
    Default                                  : Yes
    Forced                                   : No

    Audio
    ID                                       : 2
    Format                                   : MPEG Audio
    Format version                           : Version 1
    Format profile                           : Layer 3
    Mode                                     : Joint stereo
    Mode extension                           : MS Stereo
    Codec ID                                 : A_MPEG/L3
    Codec ID/Hint                            : MP3
    Duration                                 : 1h 40mn
    Bit rate mode                            : Constant
    Bit rate                                 : 128 Kbps
    Channel(s)                               : 2 channels
    Sampling rate                            : 48.0 KHz
    Compression mode                         : Lossy
    Stream size                              : 92.4 MiB (14%)
    Writing library                          : LAME3.99r
    Encoding settings                        : -m j -V 4 -q 3 -lowpass 17 -b 128
    Default                                  : Yes
    Forced                                   : No

    Скриншоты:



    © Оформление by Ravenpiratbit.pw



  • Скачать Восхождение Сокола через торрент https://pic1.kartinco.top/images/61/stazu.jpg Скачать фильм Восхождение Сокола через торрент бесплантно в хорошем качестве Описание:Джон Чепмен по кличке «Сокол» отправляется в Бразилию, чтобы выследить убийц своей сестры. В процессе поисков он сталкивается с ... 10 10 8
    Торрент: Зарегистрирован [2014-09-28 09:58] · скачан: 229 раз
    Статус: T временная
    Размер: 683 MB
    Как cкачать? Как скачать Восхождение Сокола через торрент | UTorrent

    % Раздел Тема Автор DL S | L
    T Фильмы (WEB-DL 720p, 1080p) [ 4.11 GB ] Восхождение Сокола / Falcon Rising [2014 WEB-DLRip 1080p Любительский одноголосый] [R.A.I.M] RiZus Скачать
    1 | 0
    T Фильмы 2014 (Звук TS, Cam, VO, DVO) [ 1.46 GB ] Восхождение Сокола / Falcon Rising [2014 WEB-DLRip Любительский [R.A.I.M] Ворон Скачать
    1 | 0
    Фильмы без перевода [ 1.2 GB ] Восхождение Сокола / Falcon Rising [2014 HDRip Eng + SubEng] makarevich Скачать
    1 | 0

    28-11-2019 20:33  

    Отключить всю рекламу на сайте


    28-09-2014 18:29 Восхождение Сокола Скачать торрент  

    Бразилия и японская мафия :rofle:piratbit.pw



      Дорогой пользователь! Огромная просьба, поблагодарите релизера, оцените раздачу и оставьте свои комментарий, если Вы скачали Восхождение Сокола через торрент бесплатно! Внесите свою лепту в развитие PiratBit!
      Комментировать посты могут только пользователи прошедшие не сложную регистрацию
      Показать сообщения:    

      Восхождение Сокола через торрент
      Скачать бесплатно Восхождение Сокола
      Восхождение Сокола скачать торрент
      Восхождение Сокола смотреть онлайн
      Cкачать фильм Восхождение Сокола бесплатно
      Восхождение Сокола скачать торрент в хорошем качестве
      Восхождение Сокола смотреть онлайн бесплатно в хорошем качестве


      Вы не можете начинать темы
      Вы не можете отвечать на сообщения
      Вы не можете редактировать свои сообщения
      Вы не можете удалять свои сообщения
      Вы не можете голосовать в опросах
      Вы не можете прикреплять файлы к сообщениям
      Вы можете скачивать файлы