1 сезон

3 сезон

iTunes

1

iTunes

DUB Netflix

iTunes

13

1 сезон

RePack

30

Deluxe

pack

Легкие деньги

ВАЖНО

ИГРА 18+

pack

RePack

MK11

RePack

jed

RePack

fifa19

RePack

RDR2

RePack

NEED FOR SPEED™ PAYBACK

4 сезон

9 сезон

Бесстыжие 9 сезон

Все сериалы

все сериалы на PB.wtf

RePack

FAR CRY 5

Anonymous, доброе утро, мы не успеваем до 1 числа собрать деньги на оплату серверов, помогите нам пожалуйста в это трудное время. В качестве благодарности мы отключим Вам всю рекламу на сайте (укажите свой ник в строку Ваше имя)!

×
  
Magnet ссылка

Восхождение Сокола / Falcon Rising (Эрни Барбараш) [2014, боевик, приключения, WEB-DLRip, Любительский (одноголосый)[R.A.I.M] piratbit.pw

Восхождение Сокола через торрент piratbit.pw

Размер: 1.46 GB | Добавлен: 6 лет 8 мес. назад | Торрент скачан:802 раза
Скачать  

28-09-2014 09:41 Восхождение Сокола Скачать торрент  


Восхождение Сокола / Falcon Rising


Год выпуска: 2014
Страна:США
Жанр:боевик, приключения
Продолжительность: 01:40:58
Перевод:Любительский (одноголосый) [R.A.I.M], перевод М. [Васильев]
Режиссер:Эрни Барбараш
В ролях:

Нил МакДонаф (Manny Ridley), Майкл Джей Уайт (John «Falcon» Chapman), Лайла Али (Cindy Chapman), Милли Руперто (Katarina Da' Silva), Латиф Кроудер (Carlo Bororo), Хазуки Като (Tomoe), Масаси Одате (Hirimoto), Daniel Cardona (Kuka), Жасмин Каратини (Nurse), Джонни Янг (Yakuza Guard), Robert Colon (Police Officer), Майкл Дж. Моррис (Businessman)
  • Описание:
    Джон Чепмен по кличке «Сокол» отправляется в Бразилию, чтобы выследить убийц своей сестры. В процессе поисков он сталкивается с контролируемым японской мафией подпольным миром наркотиков, проституции и продажных полицейских.


    Качество:WEB-DLRip
    Формат:AVI
    Видео кодек: XviD
    Аудио кодек:AC3
    Видео: XviD, 720x384 (1.875), 1671 kbps, 23,976 fps, 0,252 bpp
    Аудио: AC3 / 5.1 / 48 kHz / 384 kbps / 16 bit

    Код:

    General
    Complete name                            : D:\Торенты\Falcon.Rising.2014.L1.WEB-DLRip.1.46.Gb.avi
    Format                                   : AVI
    Format/Info                              : Audio Video Interleave
    File size                                : 1.46 GiB
    Duration                                 : 1h 40mn
    Overall bit rate                         : 2 065 Kbps
    Writing application                      : VirtualDubMod 1.5.10.3 | www.virtualdub-fr.org || (build 2550/release)
    Writing library                          : VirtualDubMod build 2550/release

    Video
    ID                                       : 0
    Format                                   : MPEG-4 Visual
    Format profile                           : Advanced Simple@L5
    Format settings, BVOP                    : 1
    Format settings, QPel                    : No
    Format settings, GMC                     : No warppoints
    Format settings, Matrix                  : Custom
    Codec ID                                 : XVID
    Codec ID/Hint                            : XviD
    Duration                                 : 1h 40mn
    Bit rate                                 : 1 671 Kbps
    Width                                    : 720 pixels
    Height                                   : 384 pixels
    Display aspect ratio                     : 1.875
    Frame rate                               : 23.976 fps
    Color space                              : YUV
    Chroma subsampling                       : 4:2:0
    Bit depth                                : 8 bits
    Scan type                                : Progressive
    Compression mode                         : Lossy
    Bits/(Pixel*Frame)                       : 0.252
    Stream size                              : 1.18 GiB (81%)
    Writing library                          : XviD 73

    Audio
    ID                                       : 1
    Format                                   : AC-3
    Format/Info                              : Audio Coding 3
    Mode extension                           : CM (complete main)
    Codec ID                                 : 2000
    Duration                                 : 1h 40mn
    Bit rate mode                            : Constant
    Bit rate                                 : 384 Kbps
    Channel(s)                               : 6 channels
    Channel positions                        : Front: L C R, Side: L R, LFE
    Sampling rate                            : 48.0 KHz
    Bit depth                                : 16 bits
    Compression mode                         : Lossy
    Stream size                              : 277 MiB (19%)
    Alignment                                : Split accross interleaves
    Interleave, duration                     : 42 ms (1.00 video frame)
    Interleave, preload duration             : 500 ms


    Скриншоты:



    © Оформление by Ravenpiratbit.pw



  • Скачать Восхождение Сокола через торрент https://pic1.kartinco.top/images/61/ordi9.jpg Скачать фильм Восхождение Сокола через торрент бесплантно в хорошем качестве Описание:Джон Чепмен по кличке «Сокол» отправляется в Бразилию, чтобы выследить убийц своей сестры. В процессе поисков он сталкивается с ... 9.6 10 23
    Info! Золотая раздача, скачанное не засчитывается.
    Торрент: Зарегистрирован [2014-09-28 09:41] · скачан: 802 раз
    Статус: T временная
    Размер: 1.46 GB
    Как cкачать? Как скачать Восхождение Сокола через торрент | UTorrent

    % Раздел Тема Автор DL S | L
    T Фильмы (WEB-DL 720p, 1080p) [ 4.11 GB ] Восхождение Сокола / Falcon Rising [2014 WEB-DLRip 1080p Любительский одноголосый] [R.A.I.M] RiZus Скачать
    1 | 0
    T Фильмы 2014 (Звук TS, Cam, VO, DVO) [ 683 MB ] Восхождение Сокола / Falcon Rising [2014 WEB-DLRip Любительский [R.A.I.M] Ворон Скачать
    1 | 0
    Фильмы без перевода [ 1.2 GB ] Восхождение Сокола / Falcon Rising [2014 HDRip Eng + SubEng] makarevich Скачать
    1 | 0

    28-11-2019 20:33  

    Отключить всю рекламу на сайте


    29-09-2014 17:20 Восхождение Сокола Скачать торрент  

    На удивление, неплохой фильм, можно разок посмотреть без перемоток. Ожидал что будет похож на категорию "В", но оказался нормальный, средний фильм, ничего выдающегося, но и не явная некондиция.piratbit.pw



    05-10-2014 17:38 Восхождение Сокола Скачать торрент  

    Спасибо за раздачуpiratbit.pw



      Дорогой пользователь! Огромная просьба, поблагодарите релизера, оцените раздачу и оставьте свои комментарий, если Вы скачали Восхождение Сокола через торрент бесплатно! Внесите свою лепту в развитие PiratBit!
      Комментировать посты могут только пользователи прошедшие не сложную регистрацию
      Показать сообщения:    

      Восхождение Сокола через торрент
      Скачать бесплатно Восхождение Сокола
      Восхождение Сокола скачать торрент
      Восхождение Сокола смотреть онлайн
      Cкачать фильм Восхождение Сокола бесплатно
      Восхождение Сокола скачать торрент в хорошем качестве
      Восхождение Сокола смотреть онлайн бесплатно в хорошем качестве


      Вы не можете начинать темы
      Вы не можете отвечать на сообщения
      Вы не можете редактировать свои сообщения
      Вы не можете удалять свои сообщения
      Вы не можете голосовать в опросах
      Вы не можете прикреплять файлы к сообщениям
      Вы можете скачивать файлы