1 сезон

1 сезон

iTunes

1

КиноПоиск HD

Кинопоиск HD

iTunes

13

1 сезон

RePack

30

Новинка

ВАЖНО

ИГРА 18+

pack

RePack

MK11
pack

Легкие деньги

RePack

jed

RePack

fifa19

RePack

RDR2

RePack

NEED FOR SPEED™ PAYBACK

4 сезон

9 сезон

Бесстыжие 9 сезон

Все сериалы

все сериалы на PB.wtf

RePack

FAR CRY 5
  
Magnet ссылка

Мад / Mud (Джефф Николс / Jeff Nichols) [2012, драма, криминал, BDRip 1080p, Авторский (одноголосый) piratbit.pw

Мад через торрент piratbit.pw

Размер: 7.95 GB | Добавлен: 6 лет 6 мес. назад | Торрент скачан:94 раза
Скачать  

27-09-2014 13:20 Мад Скачать торрент  

Мад / Mud

Год выпуска: 2012
Страна: США
Жанр: драма, криминал
Продолжительность: 02:10:40
Перевод: Авторский (одноголосый)
Субтитры: русские (Russian), английские (English)
Режиссер: Джефф Николс / Jeff Nichols
В ролях: Мэттью МакКонахи (Mud), Тай Шеридан (Ellis), Сэм Шепард (Tom), Риз Уизерспун (Juniper), Джейкоб Лофленд (Neckbone), Рэй МакКиннон (Senior), Сара Полсон (Mary Lee), Майкл Шеннон (Galen), Джо Дон Бейкер (King), Пол Спаркс (Carver), Бонни Стардивант (May Pearl), Стюарт Грир (Miller)
Описание:

Это история о двух мальчиках 14 лет, Эллисе и Некбоуне, которые случайно встречают во время одной из своих прогулок человека, прячущегося на острове посреди Миссисипи. Его зовут Мад: выбитый зуб, татуировка змеи на руке, пистолет и «счастливая» рубашка. А еще Мад верит в любовь - это как раз то, что нужно Эллису, чтобы забыть о напряженной обстановке в семье. Вскоре они начинают вместе чинить лодку, на которой Мад планирует покинуть остров. Однако мальчики не в состоянии понять, где правда, а где ложь в словах Мада. Действительно ли он убил человека и теперь его преследует правосудие и охотники за вознаграждением? И кто эта таинственная девушка, прибывшая в их маленький городок в штате Арканзас?
Рейтинг:


Качество: BDRip 1080p (исходник Blu-ray)
Формат: AVC (библиотека кодирования x.264)
Контейнер (Расширение):MKV
Видео кодек: AVC
Аудио кодек:AC3
Видео: AVC, 1920x816 (2.35:1), 6789 kbps, 23,976 fps, 0,181 bpp
Аудио №1: русский / AC3 / 5.1 / 48 kHz / 640 kbps / 16 bit |Авторский, А.Гаврилов|
Аудио №2: русский / AC3 / 5.1 / 48 kHz / 640 kbps / 16 bit |Авторский, Ю.Сербин|
Аудио №3: английский / AC3 / 5.1 / 48 kHz / 640 kbps / 16 bit
Навигация по главам (Чаптеры): есть

Автор рипа: Сообщество:
Format : Matroska
Format version : Version 2
File size : 7.95 GiB
Duration : 2h 10mn
Overall bit rate : 8 708 Kbps
Movie name : Мад.(2012).BDRip.1080p.[denis100]
Encoded date : UTC 2014-05-24 06:50:56
Writing application : mkvmerge v5.8.0 ('No Sleep / Pillow') built on Sep 2 2012 15:37:04
Writing library : libebml v1.2.3 + libmatroska v1.3.0

Video
ID : 1
Format : AVC
Format/Info : Advanced Video Codec
Format profile : High@L4.1
Format settings, CABAC : Yes
Format settings, ReFrames : 5 frames
Codec ID : V_MPEG4/ISO/AVC
Duration : 2h 10mn
Bit rate : 6 789 Kbps
Width : 1 920 pixels
Height : 816 pixels
Display aspect ratio : 2.35:1
Frame rate : 23.976 fps
Color space : YUV
Chroma subsampling : 4:2:0
Bit depth : 8 bits
Scan type : Progressive
Bits/(Pixel*Frame) : 0.181
Stream size : 6.04 GiB (76%)
Title : Мад.(2012).BDRip.1080p.[denis100]
Writing library : x264 core 138 r2358 9e941d1
Encoding settings : cabac=1 / ref=5 / deblock=1:-3:-3 / analyse=0x3:0x133 / me=umh / subme=11 / psy=1 / psy_rd=1.00:0.15 / mixed_ref=1 / me_range=32 / chroma_me=1 / trellis=2 / 8x8dct=1 / cqm=0 / deadzone=21,11 / fast_pskip=0 / chroma_qp_offset=-3 / threads=6 / lookahead_threads=1 / sliced_threads=0 / nr=0 / decimate=1 / interlaced=0 / bluray_compat=0 / constrained_intra=0 / bframes=8 / b_pyramid=2 / b_adapt=2 / b_bias=0 / direct=3 / weightb=1 / open_gop=0 / weightp=2 / keyint=240 / keyint_min=23 / scenecut=40 / intra_refresh=0 / rc=2pass / mbtree=0 / bitrate=6789 / ratetol=1.0 / qcomp=0.60 / qpmin=0 / qpmax=69 / qpstep=4 / cplxblur=20.0 / qblur=0.5 / ip_ratio=1.40 / pb_ratio=1.30 / aq=1:0.90
Language : English
Default : Yes
Forced : No

Audio #1
ID : 2
Format : AC-3
Format/Info : Audio Coding 3
Mode extension : CM (complete main)
Codec ID : A_AC3
Duration : 2h 10mn
Bit rate mode : Constant
Bit rate : 640 Kbps
Channel(s) : 6 channels
Channel positions : Front: L C R, Side: L R, LFE
Sampling rate : 48.0 KHz
Bit depth : 16 bits
Compression mode : Lossy
Stream size : 598 MiB (7%)
Title : Авторский, А.Гаврилов
Language : Russian
Default : No
Forced : No

Audio #2
ID : 3
Format : AC-3
Format/Info : Audio Coding 3
Mode extension : CM (complete main)
Codec ID : A_AC3
Duration : 2h 10mn
Bit rate mode : Constant
Bit rate : 640 Kbps
Channel(s) : 6 channels
Channel positions : Front: L C R, Side: L R, LFE
Sampling rate : 48.0 KHz
Bit depth : 16 bits
Compression mode : Lossy
Stream size : 598 MiB (7%)
Title : Авторский, Ю.Сербин
Language : Russian
Default : No
Forced : No

Audio #3
ID : 4
Format : AC-3
Format/Info : Audio Coding 3
Mode extension : CM (complete main)
Codec ID : A_AC3
Duration : 2h 10mn
Bit rate mode : Constant
Bit rate : 640 Kbps
Channel(s) : 6 channels
Channel positions : Front: L C R, Side: L R, LFE
Sampling rate : 48.0 KHz
Bit depth : 16 bits
Compression mode : Lossy
Stream size : 598 MiB (7%)
Title : English
Language : English
Default : No
Forced : No

Text #1
ID : 5
Format : UTF-8
Codec ID : S_TEXT/UTF8
Codec ID/Info : UTF-8 Plain Text
Title : Russian
Language : Russian
Default : No
Forced : No

Text #2
ID : 6
Format : UTF-8
Codec ID : S_TEXT/UTF8
Codec ID/Info : UTF-8 Plain Text
Title : English
Language : English
Default : No
Forced : No

Menu
00:00:00.000 : en:00:00:00.000
00:07:59.187 : en:00:07:59.187
00:17:06.650 : en:00:17:06.650
00:24:48.987 : en:00:24:48.987
00:32:16.476 : en:00:32:16.476
00:39:46.175 : en:00:39:46.175
00:52:01.952 : en:00:52:01.952
00:57:58.306 : en:00:57:58.306
01:06:18.891 : en:01:06:18.891
01:17:45.283 : en:01:17:45.283
01:24:48.957 : en:01:24:48.957
01:32:28.501 : en:01:32:28.501
01:42:04.576 : en:01:42:04.576
01:50:34.377 : en:01:50:34.377
01:58:59.256 : en:01:58:59.256
02:07:01.447 : en:02:07:01.447
x264 [info]: frame I:1462 Avg QP:16.92 size:196960
x264 [info]: frame P:40376 Avg QP:19.41 size: 63226
x264 [info]: frame B:146151 Avg QP:21.21 size: 26064
piratbit.pw



Скачать Мад через торрент http://i67.fastpic.ru/big/2014/0927/8c/6a5c9469162d6568df1995672e6fc98c.png Скачать фильм Мад через торрент бесплантно в хорошем качестве Описание: Это история о двух мальчиках 14 лет, Эллисе и Некбоуне, которые случайно встречают во время одной из своих прогулок человека, ... 10 10 4
Info! Золотая раздача, скачанное не засчитывается.
Торрент: Зарегистрирован [2014-09-27 13:20] · скачан: 94 раз
Статус: √ проверено
Размер: 7.95 GB
Как cкачать? Как скачать Мад через торрент | UTorrent

% Раздел Тема Автор DL S | L
T Фильмы (мультфильмы) cо спонсором показа (Новинки AVI/MKV) [ 2.1 GB ] Ферма «Мадбаунд» / Mudbound [2017 военный WEBRip 720p] MVO [Jaskier] bober100 Скачать
1 | 1
T Фильмы (мультфильмы) cо спонсором показа (Новинки AVI/MKV) [ 3.29 GB ] Ферма «Мадбаунд» / Mudbound [2017 военный WEBRip 1080p] MVO [Jaskier] bober100 Скачать
1 | 1
T Фильмы (мультфильмы) cо спонсором показа (Новинки AVI/MKV) [ 1.45 GB ] Ферма «Мадбаунд» / Mudbound [2017 военный WEBRip] MVO [Jaskier] bober100 Скачать
1 | 0
Порно фильмы с сюжетом [ 1.92 GB ] Безумный Цирк Мадисона / Madison's Mad Mad Circus [2013 Feature. DVDRip Оригинал] Pir@tya2010 Скачать
1 | 0
Арт-хаус и авторское кино [ 1.37 GB ] Мад / Mud [2012 HDRip Авторский Ворон Скачать
1 | 0
Арт-хаус и авторское кино [ 4.82 GB ] Мад / Mud [ 2012 BDRip 720p ] MVO Ворон Скачать
1 | 0


Последний раз редактировалось: _denis_100 (2014-11-02 16:44), всего редактировалось 2 раз(а)

28-11-2019 20:33  

Отключить всю рекламу на сайте


27-09-2014 14:01 Мад Скачать торрент  

А почему скриншотов нету?piratbit.pw



27-09-2014 21:37 Мад Скачать торрент  

Marcenaries писал(а):

А почему скриншотов нету?

уже естьpiratbit.pw



    Дорогой пользователь! Огромная просьба, поблагодарите релизера, оцените раздачу и оставьте свои комментарий, если Вы скачали Мад через торрент бесплатно! Внесите свою лепту в развитие PiratBit!
    Комментировать посты могут только пользователи прошедшие не сложную регистрацию
    Показать сообщения:    

    Мад через торрент
    Скачать бесплатно Мад
    Мад скачать торрент
    Мад смотреть онлайн
    Cкачать фильм Мад бесплатно
    Мад скачать торрент в хорошем качестве
    Мад смотреть онлайн бесплатно в хорошем качестве


    Вы не можете начинать темы
    Вы не можете отвечать на сообщения
    Вы не можете редактировать свои сообщения
    Вы не можете удалять свои сообщения
    Вы не можете голосовать в опросах
    Вы не можете прикреплять файлы к сообщениям
    Вы можете скачивать файлы