Ссылка на приватное зеркало нашего сайта всего за 1$. Внимание количество ограничено!!!

2 сезон

iTunes

1 сезон

1

iTunes

iTunes

iTunes

1 сезон

RePack

30

ИГРА 18+

pack

ВАЖНО

!!Акция!!

Alien_RageХит недели

RePack

MK11
pack

Забери бонус

RePack

jed

!!Акция!!

Alien_Rage

RePack

fifa19

RePack

Assassins Creed: Odyssey

RePack

NEED FOR SPEED™ PAYBACK

4 сезон

9 сезон

Бесстыжие 9 сезон

Все сериалы

все сериалы на PB.wtf

RePack

FAR CRY 5
  

Подарок с характером (Карен Оганесян) [2014 г., Комедия, приключения, семейный, HDRip-AVC,] [Лицензия] От R.G. PiratFilms piratbit.pw

Подарок с характером через торрент piratbit.pw

Размер: 1.46 GB | Добавлен: 6 лет 1 мес. назад | Торрент скачан:570 раз
Скачать  

10-08-2014 15:51 Подарок с характером Скачать торрент  

Год выпуска: 2014
Страна: Россия
Жанр: Комедия, приключения, семейный
Продолжительность: 01:21:16

Режиссер: Карен Оганесян

В ролях: Михаил Галустян, Артем Фадеев, Фёдор Бондарчук, Екатерина Климова, Николай Валуев, Ирина Безрукова, Катерина Шпица, Алексей Макаров, Константин Юшкевич, Инга Стрелкова-Оболдина

Описание: ыть пандой весело! Но не Мише, который вынужден работать в костюме панды на детских праздниках. Ему тридцать лет, он живет в крохотной однушке на окраине Москвы, и у него нет серьезной работы. Все было так, пока его не позвали на день рождения к сыну олигарха. Артему девять лет, и у него есть тайный план, помочь осуществить который может только Миша. Мальчик и панда отправляются в путешествие через всю страну, то и дело вляпываясь в невероятные ситуации.

Качество: HDRip-AVC
Исходник :BDRip 1080р
Формат: MKV
Видео кодек: AVC
Аудио кодек: AC3
Видео: AVC, 1024x552 (1.855), 24.000 fps, 1 925 Kbps (0.142 bit/pixel)
Аудио: AC-3, 48.0 KHz, 6 ch, 448 Kbps, CBR
Релиз от:
скриншот   скриншот   скриншот   скриншот   скриншот   скриншот  

Код:

---[Information] [10.08.2014 5:52:34] x264 [info]: frame I:1570  Avg QP:16.50  size: 78959  PSNR Mean Y:47.12 U:50.14 V:50.92 Avg:47.97 Global:47.58
---[Information] [10.08.2014 5:52:34] x264 [info]: frame P:30637 Avg QP:19.83  size: 20340  PSNR Mean Y:44.41 U:47.97 V:48.79 Avg:45.34 Global:44.77
---[Information] [10.08.2014 5:52:34] x264 [info]: frame B:94830 Avg QP:22.83  size:  5549  PSNR Mean Y:43.83 U:47.91 V:48.69 Avg:44.82 Global:44.20
---[Information] [10.08.2014 5:52:34] x264 [info]: consecutive B-frames:  3.1%  3.6% 11.4% 30.0% 21.1% 24.6%  4.1%  1.2%  1.0%

Общее
Уникальный идентификатор                 : 225090183312414733923622158424219322203 (0xA956CADC3A2481ECB9DE36A23148075B)
Полное имя                               : D:\рипы От R.G. PiratFilms\P0dar0k.2014.HDRip-AVC.by.White Smoke.R.G. PiratFilms.mkv
Формат                                   : Matroska
Версия формата                           : Version 4 / Version 2
Размер файла                             : 1,46 Гбайт
Продолжительность                        : 1 ч. 28 м.
Общий поток                              : 2374 Кбит/сек
Дата кодирования                         : UTC 2014-08-10 14:04:10
Программа кодирования                    : mkvmerge v6.8.0 ('Theme for Great Cities') 64bit built on Mar  2 2014 21:34:26
Библиотека кодирования                   : libebml v1.3.0 + libmatroska v1.4.1

Видео
Идентификатор                            : 1
Формат                                   : AVC
Формат/Информация                        : Advanced Video Codec
Профиль формата                          : High@L4.1
Параметр CABAC формата                   : Да
Параметр ReFrames формата                : 12 кадров
Идентификатор кодека                     : V_MPEG4/ISO/AVC
Продолжительность                        : 1 ч. 28 м.
Битрейт                                  : 1925 Кбит/сек
Ширина                                   : 1024 пикселя
Высота                                   : 552 пикселя
Соотношение сторон                       : 1,85:1
Режим частоты кадров                     : Постоянный
Частота кадров                           : 24,000 кадра/сек
Цветовое пространство                    : YUV
Субдискретизация насыщенности            : 4:2:0
Битовая глубина                          : 8 бит
Тип развёртки                            : Прогрессивная
Бит/(Пиксели*Кадры)                      : 0.142
Размер потока                            : 1,16 Гбайт (79%)
Библиотека кодирования                   : x264 core 142 r2431 ac76440
Настройки программы                      : cabac=1 / ref=12 / deblock=1:-3:-3 / analyse=0x3:0x113 / me=hex / subme=7 / psy=1 / psy_rd=1.00:0.00 / mixed_ref=1 / me_range=16 / chroma_me=1 / trellis=1 / 8x8dct=1 / cqm=0 / deadzone=21,11 / fast_pskip=1 / chroma_qp_offset=-2 / threads=12 / lookahead_threads=4 / sliced_threads=0 / nr=0 / decimate=1 / interlaced=0 / bluray_compat=0 / constrained_intra=0 / bframes=8 / b_pyramid=2 / b_adapt=2 / b_bias=8 / direct=1 / weightb=1 / open_gop=0 / weightp=2 / keyint=240 / keyint_min=24 / scenecut=40 / intra_refresh=0 / rc_lookahead=40 / rc=2pass / mbtree=1 / bitrate=1925 / ratetol=1.0 / qcomp=0.65 / qpmin=0 / qpmax=69 / qpstep=4 / cplxblur=20.0 / qblur=0.5 / ip_ratio=1.40 / aq=1:1.00
Язык                                     : English
Default                                  : Да
Forced                                   : Нет

Аудио
Идентификатор                            : 2
Формат                                   : AC-3
Формат/Информация                        : Audio Coding 3
Расширение режима                        : CM (complete main)
Параметр Endianness формата              : Big
Идентификатор кодека                     : A_AC3
Продолжительность                        : 1 ч. 28 м.
Вид битрейта                             : Постоянный
Битрейт                                  : 448 Кбит/сек
Каналы                                   : 6 каналов
Расположение каналов                     : Front: L C R, Side: L R, LFE
Частота                                  : 48,0 КГц
Битовая глубина                          : 16 бит
Метод сжатия                             : С потерями
Размер потока                            : 283 Мбайт (19%)
Default                                  : Да
Forced                                   : Нет


За Обложку к релизу спасибо XLASER piratbit.pw



Скачать Подарок с характером через торрент http://pic.kartinco.top/new/img/2014-08/10/rdw6g73xwyokgkr4725i1l2cd.png Скачать фильм Подарок с характером через торрент бесплантно в хорошем качестве Описание: ыть пандой весело! Но не Мише, который вынужден работать в костюме панды на детских праздниках. Ему тридцать лет, он живет в ... 8.9 10 15
Торрент: Зарегистрирован [2014-09-27 11:49] · скачан: 570 раз
Статус: √ проверено
Размер: 1.46 GB
Как cкачать? Как скачать Подарок с характером через торрент | qTorrent

28-11-2019 20:33  

Отключить всю рекламу на сайте

    Дорогой пользователь! Огромная просьба, поблагодарите релизера, оцените раздачу и оставьте свои комментарий, если Вы скачали Подарок с характером через торрент бесплатно! Внесите свою лепту в развитие PiratBit!
    Комментировать посты могут только пользователи прошедшие не сложную регистрацию
    Показать сообщения:    

    Подарок с характером через торрент
    Скачать бесплатно Подарок с характером
    Подарок с характером скачать торрент
    Подарок с характером смотреть онлайн
    Cкачать фильм Подарок с характером бесплатно
    Подарок с характером скачать торрент в хорошем качестве
    Подарок с характером смотреть онлайн бесплатно в хорошем качестве


    Вы не можете начинать темы
    Вы не можете отвечать на сообщения
    Вы не можете редактировать свои сообщения
    Вы не можете удалять свои сообщения
    Вы не можете голосовать в опросах
    Вы не можете прикреплять файлы к сообщениям
    Вы можете скачивать файлы