1 сезон

1 сезон

iTunes

1

КиноПоиск HD

Кинопоиск HD

iTunes

13

1 сезон

RePack

30

Deluxe

ВАЖНО

ИГРА 18+

pack

RePack

MK11
pack

Легкие деньги

RePack

jed

RePack

fifa19

RePack

RDR2

RePack

NEED FOR SPEED™ PAYBACK

4 сезон

9 сезон

Бесстыжие 9 сезон

Все сериалы

все сериалы на PB.wtf

RePack

FAR CRY 5
  
Magnet ссылка

Смертный приговор / Death Sentence (Джеймс Ван) [2007, боевик, триллер, драма, BDRip-AVC, Профессиональный многоголосый+DVO] piratbit.pw

Смертный приговор через торрент piratbit.pw

Размер: 4.29 GB | Добавлен: 6 лет 7 мес. назад | Торрент скачан:81 раз
Скачать  

27-09-2014 11:09 Смертный приговор Скачать торрент  

Смертный приговор / Death Sentence
«Защищай то, что твое»

Год выпуска: 2007
Страна: США
Жанр:боевик, триллер, драма, криминал
Продолжительность:01:45:30
Перевод:Профессиональный многоголосый+DVO
Субтитры:русские , английские
Режиссер:Джеймс Ван

  • В ролях:

    Кевин Бейкон (Nick Hume), Гаррет Хедлунд (Billy Darley), Келли Престон (Helen Hume), Джордан Гаррет (Lucas Hume), Стюарт Лэфферти (Brendan Hume), Аиша Тайлер (Detective Wallis), Джон Гудман (Bones Darley), Мэтью О’Лири (Joe Darley), Эди Гатеги (Bodie), Гектор Руис (Heco), Канин Дж. Хауэлл (Baggy), Дэннис Кейффер (Jamie)

  • Описание:
    Ник - менеджер крупной компании, обходительный и вежливый человек с репутацией отличного семьянина. Его жизнь была прекрасна, до тех пор, пока однажды он не стал свидетелем того, что полностью и бесповоротно сделало его иным. Поселившаяся в нём с той ужасной ночи ярость приводит его к твердой уверенности, что для защиты своей семьи он не остановится ни перед чем...

  • Мировая премьера:1 августа 2007

    Качество: BDRip-AVC
    Формат:MKV
    Видео кодек: AVC
    Аудио кодек:AC3
    Видео: AVC, 1150x478 (2.40:1), 4359 kbps, 23,976 fps, 0,331 bpp
    Аудио №1: русский / AC3 / 5.1 / 48 kHz / 448 kbps / 16 bit || MVO)
    Аудио №2: русский / AC3 / 5.1 / 48 kHz / 448 kbps / 16 bit || (DVO.GLANC & KOROLJOVA)
    Аудио №3: английский / AC3 / 5.1 / 48 kHz / 448 kbps / 16 bit
    Аудио #4: 48 kHz, AC3 Dolby Digital, 3/2 (L,C,R,l,r) + LFE ch, ~448 kbps (AVO.NEMAHOV) ✦ скачать отдельно (Жмите)
    Навигация по главам: есть
    Релиз от -
    Автор рипа: Elheym

    Код:

    General
    Unique ID                                : 219890176262129614387856946047071623205 (0xA56D4EB7ECF59989BD331CA1484D1825)
    Complete name                            : D:\Торенты\Death.Sentence.2007.TRIPLE.BDRip-AVC.x264.AC3.-HQCLUB.mkv
    Format                                   : Matroska
    Format version                           : Version 2
    File size                                : 4.29 GiB
    Duration                                 : 1h 45mn
    Overall bit rate                         : 5 819 Kbps
    Encoded date                             : UTC 2014-09-25 17:40:38
    Writing application                      : mkvmerge v5.2.0 ('I can't explain') built on Dec 18 2011 18:12:03
    Writing library                          : libebml v1.2.3 + libmatroska v1.3.0
    Attachment                               : Yes

    Video
    ID                                       : 1
    Format                                   : AVC
    Format/Info                              : Advanced Video Codec
    Format profile                           : High@L4.1
    Format settings, CABAC                   : Yes
    Format settings, ReFrames                : 14 frames
    Codec ID                                 : V_MPEG4/ISO/AVC
    Duration                                 : 1h 45mn
    Bit rate                                 : 4 360 Kbps
    Width                                    : 1 150 pixels
    Height                                   : 478 pixels
    Display aspect ratio                     : 2.40:1
    Frame rate                               : 23.976 fps
    Color space                              : YUV
    Chroma subsampling                       : 4:2:0
    Bit depth                                : 8 bits
    Scan type                                : Progressive
    Bits/(Pixel*Frame)                       : 0.331
    Stream size                              : 3.21 GiB (75%)
    Title                                    : Смертный приговор / Death Sentence (2007) BDRip-AVC by HQCLUB [Elheym]
    Writing library                          : x264 core 142 r2479 dd79a61
    Encoding settings                        : cabac=1 / ref=14 / deblock=1:-3:-2 / analyse=0x3:0x113 / me=umh / subme=11 / psy=1 / psy_rd=1.10:0.00 / mixed_ref=1 / me_range=32 / chroma_me=1 / trellis=2 / 8x8dct=1 / cqm=0 / deadzone=21,11 / fast_pskip=0 / chroma_qp_offset=-4 / threads=6 / lookahead_threads=1 / sliced_threads=0 / nr=0 / decimate=1 / interlaced=0 / bluray_compat=0 / constrained_intra=0 / bframes=11 / b_pyramid=2 / b_adapt=2 / b_bias=0 / direct=1 / weightb=1 / open_gop=0 / weightp=2 / keyint=240 / keyint_min=23 / scenecut=40 / intra_refresh=0 / rc_lookahead=40 / rc=crf / mbtree=1 / crf=17.0 / qcomp=0.60 / qpmin=0 / qpmax=69 / qpstep=4 / vbv_maxrate=50000 / vbv_bufsize=62500 / crf_max=0.0 / nal_hrd=none / filler=0 / ip_ratio=1.40 / aq=1:0.90
    Language                                 : English
    Default                                  : Yes
    Forced                                   : No

    Audio #1
    ID                                       : 2
    Format                                   : AC-3
    Format/Info                              : Audio Coding 3
    Mode extension                           : CM (complete main)
    Codec ID                                 : A_AC3
    Duration                                 : 1h 45mn
    Bit rate mode                            : Constant
    Bit rate                                 : 448 Kbps
    Channel(s)                               : 6 channels
    Channel positions                        : Front: L C R, Side: L R, LFE
    Sampling rate                            : 48.0 KHz
    Bit depth                                : 16 bits
    Compression mode                         : Lossy
    Stream size                              : 338 MiB (8%)
    Title                                    : АС3 5.1 @ 448 kbps - MVO
    Language                                 : Russian
    Default                                  : No
    Forced                                   : No

    Audio #2
    ID                                       : 3
    Format                                   : AC-3
    Format/Info                              : Audio Coding 3
    Mode extension                           : CM (complete main)
    Codec ID                                 : A_AC3
    Duration                                 : 1h 45mn
    Bit rate mode                            : Constant
    Bit rate                                 : 448 Kbps
    Channel(s)                               : 6 channels
    Channel positions                        : Front: L C R, Side: L R, LFE
    Sampling rate                            : 48.0 KHz
    Bit depth                                : 16 bits
    Compression mode                         : Lossy
    Stream size                              : 338 MiB (8%)
    Title                                    : АС3 5.1 @ 448 kbps - DVO, Glanc & Koroljova
    Language                                 : Russian
    Default                                  : No
    Forced                                   : No

    Audio #3
    ID                                       : 4
    Format                                   : AC-3
    Format/Info                              : Audio Coding 3
    Mode extension                           : CM (complete main)
    Codec ID                                 : A_AC3
    Duration                                 : 1h 45mn
    Bit rate mode                            : Constant
    Bit rate                                 : 448 Kbps
    Channel(s)                               : 6 channels
    Channel positions                        : Front: L C R, Side: L R, LFE
    Sampling rate                            : 48.0 KHz
    Bit depth                                : 16 bits
    Compression mode                         : Lossy
    Stream size                              : 338 MiB (8%)
    Title                                    : АС3 5.1 @ 448 kbps - Original
    Language                                 : English
    Default                                  : No
    Forced                                   : No

    Text #1
    ID                                       : 5
    Format                                   : UTF-8
    Codec ID                                 : S_TEXT/UTF8
    Codec ID/Info                            : UTF-8 Plain Text
    Title                                    : Full
    Language                                 : Russian
    Default                                  : No
    Forced                                   : No

    Text #2
    ID                                       : 6
    Format                                   : UTF-8
    Codec ID                                 : S_TEXT/UTF8
    Codec ID/Info                            : UTF-8 Plain Text
    Title                                    : Full
    Language                                 : English
    Default                                  : No
    Forced                                   : No

    Menu
    00:00:00.000                             : :Chapter 01
    00:07:41.544                             : :Chapter 02
    00:13:37.983                             : :Chapter 03
    00:22:00.694                             : :Chapter 04
    00:30:44.384                             : :Chapter 05
    00:40:19.708                             : :Chapter 06
    00:51:01.349                             : :Chapter 07
    00:58:56.449                             : :Chapter 08
    01:08:30.689                             : :Chapter 09
    01:15:13.967                             : :Chapter 10
    01:23:28.545                             : :Chapter 11
    01:30:01.437                             : :Chapter 12
    01:40:38.157                             : :Chapter 13
    01:45:28.905                             : :Chapter 14

    Скриншоты:



    © Оформление by Ravenpiratbit.pw



  • Скачать Смертный приговор через торрент https://pic1.kartinco.top/images/61/stazu.jpg Скачать фильм Смертный приговор через торрент бесплантно в хорошем качестве Описание:Ник - менеджер крупной компании, обходительный и вежливый человек с репутацией отличного семьянина. Его жизнь была прекрасна, до ... 10 10 2
    Торрент: Зарегистрирован [2014-09-27 11:09] · скачан: 81 раз
    Статус: √ проверено
    Размер: 4.29 GB
    Как cкачать? Как скачать Смертный приговор через торрент | UTorrent

    % Раздел Тема Автор DL S | L
    Фильмы [HD 720p, 1080p] (Хороший звук DUB, MVO) [ 12.67 GB ] Смертный приговор / Death Sentence [2007 BDRip 1080p by msltel] 2 x MVO DVO AVO msltel Скачать
    1 | 0
    Фильмы [HD 720p, 1080p] (Хороший звук DUB, MVO) [ 4.77 GB ] Смертный приговор / Death Sentence [2007 BDRip 720p by msltel] 2 x MVO DVO AVO msltel Скачать
    1 | 0
    T Релизы по Парсеру [Игры, Сериалы и Фильмы и другое...] [ 4.62 GB ] Смертный приговор / Death Sentence [2007 BDRip-AVC] MVO + DVO + AVO + Original Eng + Sub sanekbest1 Скачать
    1 | 0
    Фильмы 2006-2008 [ 2.1 GB ] Смертный приговор / Death Sentence [2007 BDRip][ 720p] stalonе Скачать
    1 | 0
    Фильмы [HD 720p, 1080p] (Хороший звук DUB, MVO) [ 5.91 GB ] Смертный приговор / Death Sentence [2007 BDRip 720p] diletant Скачать
    1 | 0
    Фильмы 2006-2008 [ 1.37 GB ] Смертный приговор / Death Sentence [2007 DVDRip] MIO2008 Скачать
    1 | 0
    Фильмы 2006-2008 [ 1.17 GB ] Смертный приговор / Death Sentence [2007 DVDRip] lehaha Скачать
    1 | 0

    28-11-2019 20:33  

    Отключить всю рекламу на сайте


      Дорогой пользователь! Огромная просьба, поблагодарите релизера, оцените раздачу и оставьте свои комментарий, если Вы скачали Смертный приговор через торрент бесплатно! Внесите свою лепту в развитие PiratBit!
      Комментировать посты могут только пользователи прошедшие не сложную регистрацию
      Показать сообщения:    

      Смертный приговор через торрент
      Скачать бесплатно Смертный приговор
      Смертный приговор скачать торрент
      Смертный приговор смотреть онлайн
      Cкачать фильм Смертный приговор бесплатно
      Смертный приговор скачать торрент в хорошем качестве
      Смертный приговор смотреть онлайн бесплатно в хорошем качестве


      Вы не можете начинать темы
      Вы не можете отвечать на сообщения
      Вы не можете редактировать свои сообщения
      Вы не можете удалять свои сообщения
      Вы не можете голосовать в опросах
      Вы не можете прикреплять файлы к сообщениям
      Вы можете скачивать файлы