1 сезон

3 сезон

iTunes

1

iTunes

DUB Netflix

iTunes

13

1 сезон

RePack

30

Deluxe

pack

Легкие деньги

ВАЖНО

ИГРА 18+

pack

RePack

MK11

RePack

jed

RePack

fifa19

RePack

RDR2

RePack

NEED FOR SPEED™ PAYBACK

4 сезон

9 сезон

Бесстыжие 9 сезон

Все сериалы

все сериалы на PB.wtf

RePack

FAR CRY 5

Anonymous, доброй ночи, мы не успеваем до 1 числа собрать деньги на оплату серверов, помогите нам пожалуйста в это трудное время. В качестве благодарности мы отключим Вам всю рекламу на сайте (укажите свой ник в строку Ваше имя)!

×
  
Magnet ссылка

Американская сила / American Muscle (Рави Дхар / Ravi Dhar) [2014, США, боевик, BDRip, Любительский (одноголосый) [Xixidok] piratbit.pw

Американская сила через торрент piratbit.pw

Размер: 1.44 GB | Добавлен: 6 лет 8 мес. назад | Торрент скачан:601 раз
Скачать  

27-09-2014 07:48 Американская сила Скачать торрент  

Американская сила / American Muscle


  • Год выпуска: 2014
  • Страна: США
  • Жанр: боевик
  • Продолжительность: 01:17:35
  • Перевод: Любительский (одноголосый) [Xixidok]

  • Режиссер: Рави Дхар / Ravi Dhar
  • В ролях:

    Робин Сидни (Darling), Ник Принсип (John Falcon), Джордж П. Вилбур (Prison Clerk), Тодд Фармер (Sam Falcon), Трент Хаага (Styles), Джон Фэллон (Tongues), Дженнифер Герт (Tura the Bartender), Саммер Перри (Dancer #2), Malice (Sassy Fanny), Kerry Krogstad (Motel Girl), Джошуа Лу Фридман (Sinko), Robert Coffie (Coughing Johnny)

  • Описание:
    Джон Фэлкон отсидел 10 лет. Теперь у него есть 24 часа, чтобы отомстить каждому, кто был причастен к его отправке в тюрьму.
  • Рейтинг:



  • Качество: BDRip
  • Формат: :AVI
  • Видео кодек: XviD
  • Аудио кодек: AC3
  • Видео: 720x304 (2.35:1), 2005 kbps, 24 fps, 0,382 bpp
  • Аудио №1: Русский 2.0 / 48 kHz / 192 kbps / 16 bit
  • Аудио №2: Английский 5.1 / 48 kHz / 448 kbps / 16 bit
  • Релиз от: GEKADOL

    Код:

    General
    Complete name                            : I:\American.Muscle.2014.L1.BDRip.avi
    Format                                   : AVI
    Format/Info                              : Audio Video Interleave
    File size                                : 1.44 GiB
    Duration                                 : 1h 17mn
    Overall bit rate                         : 2 660 Kbps
    Writing application                      : VirtualDubMod 1.5.10.3 | www.virtualdub-fr.org || (build 2550/release)
    Writing library                          : VirtualDubMod build 2550/release

    Video
    ID                                       : 0
    Format                                   : MPEG-4 Visual
    Format profile                           : Advanced Simple@L5
    Format settings, BVOP                    : 1
    Format settings, QPel                    : No
    Format settings, GMC                     : No warppoints
    Format settings, Matrix                  : Custom
    Codec ID                                 : XVID
    Codec ID/Hint                            : XviD
    Duration                                 : 1h 17mn
    Bit rate                                 : 2 006 Kbps
    Width                                    : 720 pixels
    Height                                   : 304 pixels
    Display aspect ratio                     : 2.35:1
    Frame rate                               : 24.000 fps
    Color space                              : YUV
    Chroma subsampling                       : 4:2:0
    Bit depth                                : 8 bits
    Scan type                                : Progressive
    Compression mode                         : Lossy
    Bits/(Pixel*Frame)                       : 0.382
    Stream size                              : 1.09 GiB (75%)
    Writing library                          : XviD 73

    Audio #1
    ID                                       : 1
    Format                                   : AC-3
    Format/Info                              : Audio Coding 3
    Mode extension                           : CM (complete main)
    Codec ID                                 : 2000
    Duration                                 : 1h 17mn
    Bit rate mode                            : Constant
    Bit rate                                 : 192 Kbps
    Channel(s)                               : 2 channels
    Channel positions                        : Front: L R
    Sampling rate                            : 48.0 KHz
    Bit depth                                : 16 bits
    Compression mode                         : Lossy
    Stream size                              : 107 MiB (7%)
    Alignment                                : Split accross interleaves
    Interleave, duration                     : 42 ms (1.00 video frame)
    Interleave, preload duration             : 500 ms

    Audio #2
    ID                                       : 2
    Format                                   : AC-3
    Format/Info                              : Audio Coding 3
    Mode extension                           : CM (complete main)
    Codec ID                                 : 2000
    Duration                                 : 1h 17mn
    Bit rate mode                            : Constant
    Bit rate                                 : 448 Kbps
    Channel(s)                               : 6 channels
    Channel positions                        : Front: L C R, Side: L R, LFE
    Sampling rate                            : 48.0 KHz
    Bit depth                                : 16 bits
    Compression mode                         : Lossy
    Stream size                              : 249 MiB (17%)
    Alignment                                : Split accross interleaves
    Interleave, duration                     : 42 ms (1.00 video frame)
    Interleave, preload duration             : 500 ms


    Скриншоты:


    piratbit.pw



  • Скачать Американская сила через торрент http://i68.fastpic.ru/big/2014/0927/8f/5a7ce32ac07ab068be3a7a655304af8f.jpg Скачать фильм Американская сила через торрент бесплантно в хорошем качестве Описание: Джон Фэлкон отсидел 10 лет. Теперь у него есть 24 часа, чтобы отомстить каждому, кто был причастен к его отправке в ... 9.3 10 18
    Торрент: Зарегистрирован [2014-09-27 07:48] · скачан: 601 раз
    Статус: √ проверено
    Размер: 1.44 GB
    Как cкачать? Как скачать Американская сила через торрент | UTorrent



    Последний раз редактировалось: GEKADOL (2014-09-27 08:08), всего редактировалось 1 раз

    28-11-2019 20:33  

    Отключить всю рекламу на сайте

    27-09-2014 07:50 Американская сила Скачать торрент  

    До 18 Предупреждаю) piratbit.pw



    27-09-2014 08:29 Американская сила Скачать торрент  

    GEKADOL писал(а):

    До 18 Предупреждаю)

    ладно уговорил гляну
    если бы не этот коммент прошел бы мимо!piratbit.pw



    27-09-2014 08:51 Американская сила Скачать торрент  

    Судя по трейлеру кровище хлещет рекой. Пожалуй стоит глянуть "одним глазком"!piratbit.pw



    02-10-2014 17:31 Американская сила Скачать торрент  

    А сисек-то, сисек... Изо всех щелей !!!
    Ну и конечно приятная дикция Педро Хихи-дока.piratbit.pw



    03-10-2014 16:49 Американская сила Скачать торрент  

    Походу весь фильм он мстит за 10 лет мастурбации в тюрьме.piratbit.pw



      Дорогой пользователь! Огромная просьба, поблагодарите релизера, оцените раздачу и оставьте свои комментарий, если Вы скачали Американская сила через торрент бесплатно! Внесите свою лепту в развитие PiratBit!
      Комментировать посты могут только пользователи прошедшие не сложную регистрацию
      Показать сообщения:    

      Американская сила через торрент
      Скачать бесплатно Американская сила
      Американская сила скачать торрент
      Американская сила смотреть онлайн
      Cкачать фильм Американская сила бесплатно
      Американская сила скачать торрент в хорошем качестве
      Американская сила смотреть онлайн бесплатно в хорошем качестве


      Вы не можете начинать темы
      Вы не можете отвечать на сообщения
      Вы не можете редактировать свои сообщения
      Вы не можете удалять свои сообщения
      Вы не можете голосовать в опросах
      Вы не можете прикреплять файлы к сообщениям
      Вы можете скачивать файлы