1 сезон

1 сезон

iTunes

1

КиноПоиск HD

Кинопоиск HD

iTunes

13

1 сезон

RePack

30

Ultimate

ВАЖНО

ИГРА 18+

pack

RePack

MK11
pack

Легкие деньги

RePack

jed

RePack

fifa19

RePack

RDR2

RePack

NEED FOR SPEED™ PAYBACK

4 сезон

9 сезон

Бесстыжие 9 сезон

Все сериалы

все сериалы на PB.wtf

RePack

FAR CRY 5
  
Magnet ссылка

Вопросы и ответы / Q & A (Сидни Люмет / Sidney Lumet) [1990, драма, криминал, HDTVRip] [AVO] (М.Иванов) piratbit.pw

Вопросы и ответы через торрент piratbit.pw

Размер: 1.45 GB | Добавлен: 6 лет 6 мес. назад | Торрент скачан:16 раз
Скачать  

25-09-2014 19:48 Вопросы и ответы Скачать торрент  

Вопросы и ответы / Q & A
Год выпуска: 1990
Страна: США
Жанр: драма, криминал
Продолжительность: 02:06:47
Перевод: Авторский (одноголосый, закадровый) [Михаил Иванов]
Cубтитры: нет

Режиссер: Сидни Люмет / Sidney Lumet

В ролях: Ник Нолти, Тимоти Хаттон, Арманд Ассанте, Патрик О'Нил, Дженни Люмет, Ли Ричардсон

Описание: Когда Майк Брэннан, бывалый нью-йоркский полицейский с крутым нравом, безжалостно расправляется с мелким гангстером, прокурор поручает молодому юристу Элу Фрэнсису провести формальное дознание, чтобы отчитаться перед законом и списать дело в архив.
Никто не сомневается, что Майк, для которого ненависть к ворам и убийцам стала наваждением, поступил правильно, но показания наркодилера Декса говорят об обратном. Оказавшись перед нелегким выбором, Эл решает провести справедливое расследование.
Он знает, что рискует не только честью, но и жизнью, ведь в суровом мире крутых копов и безжалостных бандитов предательство не прощается…



Качество видео: НDTVRip (спасибо DIABLO93)
Формат видео: AVI
Видео кодек: XviD
Аудио кодек: AC3
Видео: 720x400 (1.80:1), 25 fps, XviD build 50 ~1439 kbps avg, 0.20 bit/pixel
Аудио: 48 kHz, AC3 Dolby Digital, 2/0 (L,R) ch, ~192 kbps

Цитата:

Перевод: Авторский (одноголосый закадровый) [Михаил Иванов], за дорогу спасибо budulai-8

Полное имя : Вопросы и ответы 1990.avi
Формат : AVI
Формат/Информация : Audio Video Interleave
Размер файла : 1,45 Гбайт
Продолжительность : 2 ч. 6 м.
Общий поток : 1642 Кбит/сек
Программа кодирования : VirtualDubMod 1.5.10.2 (build 2540/release)
Библиотека кодирования : VirtualDubMod build 2540/release
Формат оригинала/Имя : Movie
Видео
Идентификатор : 0
Формат : MPEG-4 Visual
Профиль формата : Advanced Simple@L5
Параметр BVOP формата : 2
Параметр QPel формата : Нет
Параметр GMC формата : Без точки перехода
Параметр матрицы формата : Выборочная
Идентификатор кодека : XVID
Идентификатор кодека/Подсказка : XviD
Продолжительность : 2 ч. 6 м.
Битрейт : 1440 Кбит/сек
Ширина : 720 пикселей
Высота : 400 пикселей
Соотношение сторон : 16:9
Частота кадров : 25,000 кадров/сек
Цветовое пространство : YUV
Субдискретизация насыщенности : 4:2:0
Битовая глубина : 8 бит
Тип развёртки : Прогрессивная
Метод сжатия : С потерями
Бит/(Пиксели*Кадры) : 0.200
Размер потока : 1,28 Гбайт (88%)
Библиотека кодирования : XviD 1.2.1 (UTC 2008-12-04)
Аудио
Идентификатор : 1
Формат : AC-3
Формат/Информация : Audio Coding 3
Расширение режима : CM (complete main)
Параметр Endianness формата : Big
Идентификатор кодека : 2000
Продолжительность : 2 ч. 6 м.
Вид битрейта : Постоянный
Битрейт : 192 Кбит/сек
Каналы : 2 канала
Расположение каналов : Front: L R
Частота : 48,0 КГц
Битовая глубина : 16 бит
Метод сжатия : С потерями
Размер потока : 174 Мбайт (12%)
Выравнивание : Разделение по промежуткам
Продолжительность промежутка : 40 мс. (1,00 видеокадр)
Время предзагрузки промежутка : 500 мс.
piratbit.pw



Скачать Вопросы и ответы через торрент http://i67.fastpic.ru/big/2014/0917/42/a9412ff1c4d2c4361b909ce3d3b25a42.jpg Скачать фильм Вопросы и ответы через торрент бесплантно в хорошем качестве Описание: Когда Майк Брэннан, бывалый нью-йоркский полицейский с крутым нравом, безжалостно расправляется с мелким гангстером, прокурор ... 10 10 1
Торрент: Зарегистрирован [2014-09-25 19:48] · скачан: 16 раз
Статус: √ проверено
Размер: 1.45 GB
Как cкачать? Как скачать Вопросы и ответы через торрент | UTorrent

28-11-2019 20:33  

Отключить всю рекламу на сайте

    Дорогой пользователь! Огромная просьба, поблагодарите релизера, оцените раздачу и оставьте свои комментарий, если Вы скачали Вопросы и ответы через торрент бесплатно! Внесите свою лепту в развитие PiratBit!
    Комментировать посты могут только пользователи прошедшие не сложную регистрацию
    Показать сообщения:    

    Вопросы и ответы через торрент
    Скачать бесплатно Вопросы и ответы
    Вопросы и ответы скачать торрент
    Вопросы и ответы смотреть онлайн
    Cкачать фильм Вопросы и ответы бесплатно
    Вопросы и ответы скачать торрент в хорошем качестве
    Вопросы и ответы смотреть онлайн бесплатно в хорошем качестве


    Вы не можете начинать темы
    Вы не можете отвечать на сообщения
    Вы не можете редактировать свои сообщения
    Вы не можете удалять свои сообщения
    Вы не можете голосовать в опросах
    Вы не можете прикреплять файлы к сообщениям
    Вы можете скачивать файлы