1 сезон

3 сезон

iTunes

1

iTunes

DUB Netflix

iTunes

13

1 сезон

RePack

30

Deluxe

pack

Легкие деньги

ВАЖНО

ИГРА 18+

pack

RePack

MK11

RePack

jed

RePack

fifa19

RePack

RDR2

RePack

NEED FOR SPEED™ PAYBACK

4 сезон

9 сезон

Бесстыжие 9 сезон

Все сериалы

все сериалы на PB.wtf

RePack

FAR CRY 5

Anonymous, доброй ночи, мы не успеваем до 1 числа собрать деньги на оплату серверов, помогите нам пожалуйста в это трудное время. В качестве благодарности мы отключим Вам всю рекламу на сайте (укажите свой ник в строку Ваше имя)!

×
  
Magnet ссылка

Последний урок / La journée de la jupe (Жан-Поль Лильенфельд / Jean-Paul Lilienfeld) [2008, Франция, Бельгия, драма, DVDRip, Профессиональный многоголосый - Лицензия] piratbit.pw

Последний урок через торрент piratbit.pw

Размер: 1.36 GB | Добавлен: 6 лет 8 мес. назад | Торрент скачан:58 раз
Скачать  

24-09-2014 20:47 Последний урок Скачать торрент  

Последний урок / La journée de la jupe

Год выпуска: 2008
Страна: Франция, Бельгия
Жанр: драма
Продолжительность: 01:27:02
Перевод: Профессиональный многоголосый [Лицензия]
Субтитры: Отсутствует
Режиссер: Жан-Поль Лильенфельд / Jean-Paul Lilienfeld
В ролях:


Изабель Аджани (Sonia Bergerac), Дени Подалидес (Labouret), Янн Коллетт (Bechet), Натали Безансон (La ministre), Марк Китти (Frédéric Bergerac), Янн Эбонж (Mouss), Карим Закрауи (Farid), Кевин Азиз (Sébastien), Халид Беркуз (Mehmet), Сара Дуали (Farida), Хассан Мезуд (Akim), Соня Амори (Nawel)

Описание:
Обычная школьная учительница находится на грани нервного срыва из-за постоянных угроз и издевательств своих учеников - детей из неблагополучных семей. Руководство бездействует, предпочитая игнорировать тревожные признаки назревающей трагедии. Во время очередного урока, в ходе потасовки с главарём школьной банды, она завладевает настоящим пистолетом. Раздаются выстрелы. Испуганные подростки оказываются в заложниках у собственной учительницы.
Сложившуюся ситуацию уже никто не в состоянии контролировать. Снаружи - готовая к захвату опергруппа, внутри - притихшие, но озлобленные дети, вынужденные учить Мольера под дулом револьвера в руках одинокой и растерянной женщины. Трагическая развязка близка. Но пока ещё есть время, они вместе пробуют разобраться, откуда у этих ребят накопилось столько злобы и ненависти к окружающему миру.

Рейтинг:
Бюджет:€1 600 000
Качество: DVDRip
Формат: AVI
Видео кодек:XviD
Аудио кодек:AC3
Видео: XviD, 704x384 (16:9), 1786 kbps, 25 fps, 0,264 bpp
Аудио: AC3 / 5.1 / 48 kHz / 448 kbps / 16 bit

General
Complete name : D:\Users\_KaisiK_\uTorrent\КИНО\La.Journee.De.La.Jupe.2008.P.Rus.DVDRip.avi
Format : AVI
Format/Info : Audio Video Interleave
File size : 1.36 GiB
Duration : 1h 27mn
Overall bit rate : 2 244 Kbps
Writing application : VirtualDubMod 1.5.10.2 (build 2542/release)
Writing library : VirtualDubMod build 2542/release

Video
ID : 0
Format : MPEG-4 Visual
Format profile : Advanced Simple@L5
Format settings, BVOP : No
Format settings, QPel : No
Format settings, GMC : No warppoints
Format settings, Matrix : Custom
Codec ID : XVID
Codec ID/Hint : XviD
Duration : 1h 27mn
Bit rate : 1 786 Kbps
Width : 704 pixels
Height : 384 pixels
Display aspect ratio : 16:9
Frame rate : 25.000 fps
Color space : YUV
Chroma subsampling : 4:2:0
Bit depth : 8 bits
Scan type : Progressive
Compression mode : Lossy
Bits/(Pixel*Frame) : 0.264
Stream size : 1.09 GiB (80%)
Writing library : XviD 1.2.1 (UTC 2008-12-04)

Audio
ID : 1
Format : AC-3
Format/Info : Audio Coding 3
Mode extension : CM (complete main)
Codec ID : 2000
Duration : 1h 27mn
Bit rate mode : Constant
Bit rate : 448 Kbps
Channel(s) : 6 channels
Channel positions : Front: L C R, Side: L R, LFE
Sampling rate : 48.0 KHz
Bit depth : 16 bits
Compression mode : Lossy
Stream size : 279 MiB (20%)
Alignment : Split accross interleaves
Interleave, duration : 40 ms (1.00 video frame)
Interleave, preload duration : 500 ms

[/code]
piratbit.pw



Скачать Последний урок через торрент http://i1.imageban.ru/out/2014/09/25/b8a575b163ccf6c2329b02c013c803b5.jpg Скачать фильм Последний урок через торрент бесплантно в хорошем качестве Описание: Обычная школьная учительница находится на грани нервного срыва из-за постоянных угроз и издевательств своих учеников - детей из ... 10 10 1
Торрент: Зарегистрирован [2014-09-24 20:47] · скачан: 58 раз
Статус: √ проверено
Размер: 1.36 GB
Как cкачать? Как скачать Последний урок через торрент | UTorrent

% Раздел Тема Автор DL S | L
Фильмы 2006-2008 [ 700 MB ] Последний урок / La journée de la jupe [2008 DVDRip] ЕВГЕНИЙ ОЛЕГОВИЧ Скачать
1 | 0

28-11-2019 20:33  

Отключить всю рекламу на сайте

    Дорогой пользователь! Огромная просьба, поблагодарите релизера, оцените раздачу и оставьте свои комментарий, если Вы скачали Последний урок через торрент бесплатно! Внесите свою лепту в развитие PiratBit!
    Комментировать посты могут только пользователи прошедшие не сложную регистрацию
    Показать сообщения:    

    Последний урок через торрент
    Скачать бесплатно Последний урок
    Последний урок скачать торрент
    Последний урок смотреть онлайн
    Cкачать фильм Последний урок бесплатно
    Последний урок скачать торрент в хорошем качестве
    Последний урок смотреть онлайн бесплатно в хорошем качестве


    Вы не можете начинать темы
    Вы не можете отвечать на сообщения
    Вы не можете редактировать свои сообщения
    Вы не можете удалять свои сообщения
    Вы не можете голосовать в опросах
    Вы не можете прикреплять файлы к сообщениям
    Вы можете скачивать файлы