1 сезон

1 сезон

iTunes

1

КиноПоиск HD

Кинопоиск HD

iTunes

13

1 сезон

RePack

30

Новинка

ВАЖНО

ИГРА 18+

pack

RePack

MK11
pack

Легкие деньги

RePack

jed

RePack

fifa19

RePack

RDR2

RePack

NEED FOR SPEED™ PAYBACK

4 сезон

9 сезон

Бесстыжие 9 сезон

Все сериалы

все сериалы на PB.wtf

RePack

FAR CRY 5
  
Magnet ссылка

8 миллионов способов умереть / 8 Million Ways to Die (Хэл Эшби / Hal Ashby) [1986, боевик, триллер, криминал, приключения, DVDRip] [AVO] (А. Михалев) piratbit.pw

8 миллионов способов умереть через торрент piratbit.pw

Размер: 1.46 GB | Добавлен: 6 лет 6 мес. назад | Торрент скачан:29 раз
Скачать  

24-09-2014 16:26 8 миллионов способов умереть Скачать торрент  


8 миллионов способов умереть
8 Million Ways to Die

Год выпуска: 1986
Страна: США
Жанр: боевик, триллер, криминал, приключения
Продолжительность: 01:50:43
Перевод: Авторский (одноголосый, закадровый) [А. Михалев]
Cубтитры: нет

Режиссер: Хэл Эшби / Hal Ashby

В ролях: Джефф Бриджес, Розанна Аркетт, Александра Пол, Рэнди Брукс, Энди Гарсиа, Лиза Слоун, Криста Дентон, Вэнс Валенсия, Вильфредо Эрнандес, Луиза Лешин

Описание: Скаддер — детектив в департаменте шерифа. Во время очередного наркорейда он вынужден застрелить человека. Переживая по поводу этого инцидента, Скаддер начинает много пить, и из-за этого его увольняют с работы и распадается его брак. Во время лечения в Обществе Анонимных Алкоголиков он встречает таинственную незнакомку. Пытаясь помочь этой женщине, он погружается в мир проституции и наркотиков для того, чтобы найти убийцу. Во время расследования он постоянно находится на грани нового попадания в алкогольную зависимость.

Сэмпл

Исходник: DVD9
Качество: DVDRip
Формат: AVI
Видео кодек: XviD
Аудио кодек: AC3
Видео: 720х400 (1:80:1), XviD build 73 ~ 1 688 kbps, 25.000 fps, 0.24 bit/pixel
Аудио: 48 kHz, AC3 Dolby Digital, 2/0 (L,R), ~192.00 kbps avg (А. Михалев)

General
Format : AVI
Format/Info : Audio Video Interleave
File size : 1.46 GiB
Duration : 1h 50mn
Overall bit rate : 1 890 Kbps
Writing application : VirtualDubMod 1.5.10.2 (build 2540/release)
Writing library : VirtualDubMod build 2540/release
Video
ID : 0
Format : MPEG-4 Visual
Format profile : Advanced Simple@L5
Format settings, BVOP : 1
Format settings, QPel : No
Format settings, GMC : No warppoints
Format settings, Matrix : Custom
Codec ID : XVID
Codec ID/Hint : XviD
Duration : 1h 50mn
Bit rate : 1 688 Kbps
Width : 720 pixels
Height : 400 pixels
Display aspect ratio : 16:9
Frame rate : 25.000 fps
Color space : YUV
Chroma subsampling : 4:2:0
Bit depth : 8 bits
Scan type : Progressive
Compression mode : Lossy
Bits/(Pixel*Frame) : 0.234
Stream size : 1.31 GiB (89%)
Writing library : XviD 73
Audio
ID : 1
Format : AC-3
Format/Info : Audio Coding 3
Mode extension : CM (complete main)
Format settings, Endianness : Big
Codec ID : 2000
Duration : 1h 50mn
Bit rate mode : Constant
Bit rate : 192 Kbps
Channel(s) : 2 channels
Channel positions : Front: L R
Sampling rate : 48.0 KHz
Bit depth : 16 bits
Compression mode : Lossy
Stream size : 152 MiB (10%)
Alignment : Split accross interleaves
Interleave, duration : 40 ms (1.00 video frame)
Interleave, preload duration : 500 ms
скриншот   скриншот   скриншот   скриншот   скриншот   скриншот   скриншот  

piratbit.pw



Скачать 8 миллионов способов умереть через торрент http://i65.fastpic.ru/big/2014/0924/45/cd009613125c91c32bd01957e8f7b145.jpg Скачать фильм 8 миллионов способов умереть через торрент бесплантно в хорошем качестве Описание: Скаддер — детектив в департаменте шерифа. Во время очередного наркорейда он вынужден застрелить человека. Переживая по поводу ... 10 10 7
Торрент: Зарегистрирован [2014-09-24 16:26] · скачан: 29 раз
Статус: √ проверено
Размер: 1.46 GB
Как cкачать? Как скачать 8 миллионов способов умереть через торрент | UTorrent

% Раздел Тема Автор DL S | L
Классика зарубежного кино [ 1.72 GB ] 8 миллионов способов умереть / 8 Million Ways To Die [1986 MVO лицензия] ОкСиД Скачать
1 | 0

28-11-2019 20:33  

Отключить всю рекламу на сайте

    Дорогой пользователь! Огромная просьба, поблагодарите релизера, оцените раздачу и оставьте свои комментарий, если Вы скачали 8 миллионов способов умереть через торрент бесплатно! Внесите свою лепту в развитие PiratBit!
    Комментировать посты могут только пользователи прошедшие не сложную регистрацию
    Показать сообщения:    

    8 миллионов способов умереть через торрент
    Скачать бесплатно 8 миллионов способов умереть
    8 миллионов способов умереть скачать торрент
    8 миллионов способов умереть смотреть онлайн
    Cкачать фильм 8 миллионов способов умереть бесплатно
    8 миллионов способов умереть скачать торрент в хорошем качестве
    8 миллионов способов умереть смотреть онлайн бесплатно в хорошем качестве


    Вы не можете начинать темы
    Вы не можете отвечать на сообщения
    Вы не можете редактировать свои сообщения
    Вы не можете удалять свои сообщения
    Вы не можете голосовать в опросах
    Вы не можете прикреплять файлы к сообщениям
    Вы можете скачивать файлы