1 сезон

1 сезон

iTunes

1

КиноПоиск HD

Кинопоиск HD

iTunes

13

1 сезон

RePack

30

Ultimate

ВАЖНО

ИГРА 18+

pack

RePack

MK11
pack

Легкие деньги

RePack

jed

RePack

fifa19

RePack

RDR2

RePack

NEED FOR SPEED™ PAYBACK

4 сезон

9 сезон

Бесстыжие 9 сезон

Все сериалы

все сериалы на PB.wtf

RePack

FAR CRY 5
  
Magnet ссылка

Крепкий сон / Mientras duermes (Жауме Балагуэро) [2011г., триллер, драма, BDRip 1080p] AVO, VO piratbit.pw

Крепкий сон через торрент piratbit.pw

Размер: 10.67 GB | Добавлен: 6 лет 7 мес. назад | Торрент скачан:19 раз
Скачать  

22-09-2014 15:25 Крепкий сон Скачать торрент  

Крепкий сон / Mientras duermes
Год выпуска: 2011
Страна: Испания
Жанр: триллер, драма
Продолжительность: 01:40:59
Перевод: авторский, любительский многоголосый, любительский одноголосый
Субтитры: русские, английские

Режиссёр: Жауме Балагуэро

В ролях: Луис Тосар, Марта Этура, Альберто Сан Хуан, Петра Мартинес, Пеп Тосар, Карлос Ласарте, Ирис Альмейда, Манель Дуэсо, Ориол Хенис

Описание: Главный герой — Сесар, работающий консьержем в небольшом жилом доме, в Барселоне. Кажется, что он маленький незаметный человек, который лишь открывает и закрывает двери, но на самом деле он тот, кто замечает и знает про жителей многоквартирного дома абсолютно всё. Он глубоко несчастлив и ищет хоть какую-нибудь причину для дальнейшего своего существования. День за днём он выполняет свою работу и, пока на него никто из жителей дома не обращает особого внимания, неустанно наблюдает за ними. Он знает каждую мелочь в их жизни, всё о них, а в особенности про одну из них…



Качество: BDRip 1080p Сравнение с исходником
Формат: MKV
Видео кодек: H.264
Аудио кодек: AC3,DTS
Видео: 1920x816, 11.2 Mbps, 24 кадра/сек
Аудио 1: русский, DTS, 1509 kbps, 6 ch, 48 kHz [авторский, Юрий Немахов]
Аудио 2: русский, AC3, 448 kbps, 6 ch, 48 kHz [любительский многоголосый, GalVid-Group]
Аудио 3: русский, AC3, 192 kbps, 2 ch, 48 kHz [любительский одноголосый, Samurai48]
Аудио 4: английский, AC3, 448 kbps, 6 ch, 48 kHz [оригинал]

Имеются неименованные главы/чаптеры.

Автор рипа msltel
Гойя, 2012 год
Номинации (1):
Лучшая мужская роль (Луис Тосар)
Общее
Уникальный идентификатор : 181254601791607141492478844258431252250 (0x885C5DD3EAB4B3E78BFF82600FD7B71A)
Полное имя : D:VideoKrepkij son.2011.BDRip.1080p.mkv
Формат : Matroska
Версия формата : Version 4 / Version 2
Размер файла : 10,7 Гбайт
Продолжительность : 1 ч. 40 м.
Общий поток : 15,1 Мбит/сек
Дата кодирования : UTC 2014-09-02 06:14:17
Программа кодирования : mkvmerge v6.9.1 ('Blue Panther') 64bit built on Apr 18 2014 18:23:38
Библиотека кодирования : libebml v1.3.0 + libmatroska v1.4.1

Видео
Идентификатор : 1
Формат : AVC
Формат/Информация : Advanced Video Codec
Профиль формата : High@L4.1
Параметр CABAC формата : Да
Параметр ReFrames формата : 4 кадра
Идентификатор кодека : V_MPEG4/ISO/AVC
Продолжительность : 1 ч. 40 м.
Битрейт : 11,2 Мбит/сек
Ширина : 1920 пикселей
Высота : 816 пикселей
Соотношение сторон : 2,35:1
Режим частоты кадров : Постоянный
Частота кадров : 24,000 кадра/сек
Цветовое пространство : YUV
Субдискретизация насыщенности : 4:2:0
Битовая глубина : 8 бит
Тип развёртки : Прогрессивная
Бит/(Пиксели*Кадры) : 0.297
Размер потока : 7,88 Гбайт (74%)
Заголовок : BDRip -- STarankov
Библиотека кодирования : x264 core 142 r2431 ac76440
Настройки программы : cabac=1 / ref=4 / deblock=1:-1:-1 / analyse=0x3:0x113 / me=umh / subme=10 / psy=1 / psy_rd=1.00:0.15 / mixed_ref=1 / me_range=32 / chroma_me=1 / trellis=2 / 8x8dct=1 / cqm=0 / deadzone=21,11 / fast_pskip=0 / chroma_qp_offset=-3 / threads=6 / lookahead_threads=1 / sliced_threads=0 / nr=0 / decimate=1 / interlaced=0 / bluray_compat=0 / constrained_intra=0 / bframes=8 / b_pyramid=2 / b_adapt=2 / b_bias=0 / direct=1 / weightb=1 / open_gop=0 / weightp=2 / keyint=230 / keyint_min=23 / scenecut=40 / intra_refresh=0 / rc_lookahead=40 / rc=crf / mbtree=0 / crf=20.2 / qcomp=0.60 / qpmin=0 / qpmax=69 / qpstep=4 / vbv_maxrate=40000 / vbv_bufsize=50000 / crf_max=0.0 / nal_hrd=none / filler=0 / ip_ratio=1.40 / pb_ratio=1.30 / aq=1:1.00
Язык : Spanish
Default : Да
Forced : Нет

Аудио #1
Идентификатор : 2
Формат : DTS
Формат/Информация : Digital Theater Systems
Режим : 16
Параметр Endianness формата : Big
Идентификатор кодека : A_DTS
Продолжительность : 1 ч. 40 м.
Вид битрейта : Постоянный
Битрейт : 1509 Кбит/сек
Каналы : 6 каналов
Расположение каналов : Front: L C R, Side: L R, LFE
Частота : 48,0 КГц
Битовая глубина : 16 бит
Метод сжатия : С потерями
Размер потока : 1,06 Гбайт (10%)
Заголовок : AVO (Юрий Немахов)
Язык : Russian
Default : Да
Forced : Нет

Аудио #2
Идентификатор : 3
Формат : AC-3
Формат/Информация : Audio Coding 3
Расширение режима : CM (complete main)
Параметр Endianness формата : Big
Идентификатор кодека : A_AC3
Продолжительность : 1 ч. 40 м.
Вид битрейта : Постоянный
Битрейт : 448 Кбит/сек
Каналы : 6 каналов
Расположение каналов : Front: L C R, Side: L R, LFE
Частота : 48,0 КГц
Битовая глубина : 16 бит
Метод сжатия : С потерями
Размер потока : 324 Мбайт (3%)
Заголовок : MVO (GalVid-Group, любительский)
Язык : Russian
Default : Нет
Forced : Нет

Аудио #3
Идентификатор : 4
Формат : AC-3
Формат/Информация : Audio Coding 3
Расширение режима : CM (complete main)
Параметр Endianness формата : Big
Идентификатор кодека : A_AC3
Продолжительность : 1 ч. 40 м.
Вид битрейта : Постоянный
Битрейт : 192 Кбит/сек
Каналы : 2 канала
Расположение каналов : Front: L R
Частота : 48,0 КГц
Битовая глубина : 16 бит
Метод сжатия : С потерями
Размер потока : 139 Мбайт (1%)
Заголовок : VO (Samurai48, любительский)
Язык : Russian
Default : Нет
Forced : Нет

Аудио #4
Идентификатор : 5
Формат : DTS
Формат/Информация : Digital Theater Systems
Режим : 16
Параметр Endianness формата : Big
Идентификатор кодека : A_DTS
Продолжительность : 1 ч. 40 м.
Вид битрейта : Постоянный
Битрейт : 1509 Кбит/сек
Каналы : 6 каналов
Расположение каналов : Front: L C R, Side: L R, LFE
Частота : 48,0 КГц
Битовая глубина : 16 бит
Метод сжатия : С потерями
Размер потока : 1,06 Гбайт (10%)
Заголовок : Original
Язык : Spanish
Default : Нет
Forced : Нет

Текст #1
Идентификатор : 6
Формат : UTF-8
Идентификатор кодека : S_TEXT/UTF8
Идентификатор кодека/Информация : UTF-8 Plain Text
Заголовок : русский
Язык : Russian
Default : Нет
Forced : Нет

Текст #2
Идентификатор : 7
Формат : UTF-8
Идентификатор кодека : S_TEXT/UTF8
Идентификатор кодека/Информация : UTF-8 Plain Text
Заголовок : английский
Default : Нет
Forced : Нет

Меню
00:00:00.000 : en:00:00:00.000
00:08:12.667 : en:00:08:12.667
00:17:22.625 : en:00:17:22.625
00:28:02.125 : en:00:28:02.125
00:35:43.375 : en:00:35:43.375
00:41:57.875 : en:00:41:57.875
00:50:29.625 : en:00:50:29.625
00:58:28.000 : en:00:58:28.000
01:10:20.958 : en:01:10:20.958
01:15:23.792 : en:01:15:23.792
01:23:12.583 : en:01:23:12.583
01:28:54.833 : en:01:28:54.833
piratbit.pw



Скачать Крепкий сон через торрент http://i67.fastpic.ru/big/2014/0922/d3/dedfe2d0967188a572174ba0433cbed3.jpg Скачать фильм Крепкий сон через торрент бесплантно в хорошем качестве Описание: Главный герой — Сесар, работающий консьержем в небольшом жилом доме, в Барселоне. Кажется, что он маленький незаметный человек, ... 10 10 4
Торрент: Зарегистрирован [2014-09-22 15:25] · скачан: 19 раз
Статус: √ проверено
Размер: 10.67 GB
Как cкачать? Как скачать Крепкий сон через торрент | UTorrent

% Раздел Тема Автор DL S | L
Фильмы [HD 720p, 1080p] (Хороший звук DUB, MVO) [ 9.16 GB ] Крепкий сон / Пока ты спишь / Sleep Tight / Mientras duermes [2011 BDRip 1080p] MVO [HDRezka Studio] +AVO [Ю.Немахов] bober100 Скачать
1 | 0
Фильмы с авторской озвучкой [ 4.3 GB ] Крепкий сон / Mientras duermes [2011 BDRip 720p] AVO VO msltel Скачать
1 | 0

28-11-2019 20:33  

Отключить всю рекламу на сайте

22-09-2014 19:43 Крепкий сон Скачать торрент  

кто перевел название фильма в такой форме?студенты?смысловое значение словосочетания-Пока ты спишь.дословное-между тем спишь.dormir forte-это -крепко спать .порой смысл фильма раскрывается или предугадывается в его названии.,а назвав вепря поросенком-это я думаю во многом может обмануть ожидания)piratbit.pw



    Дорогой пользователь! Огромная просьба, поблагодарите релизера, оцените раздачу и оставьте свои комментарий, если Вы скачали Крепкий сон через торрент бесплатно! Внесите свою лепту в развитие PiratBit!
    Комментировать посты могут только пользователи прошедшие не сложную регистрацию
    Показать сообщения:    

    Крепкий сон через торрент
    Скачать бесплатно Крепкий сон
    Крепкий сон скачать торрент
    Крепкий сон смотреть онлайн
    Cкачать фильм Крепкий сон бесплатно
    Крепкий сон скачать торрент в хорошем качестве
    Крепкий сон смотреть онлайн бесплатно в хорошем качестве


    Вы не можете начинать темы
    Вы не можете отвечать на сообщения
    Вы не можете редактировать свои сообщения
    Вы не можете удалять свои сообщения
    Вы не можете голосовать в опросах
    Вы не можете прикреплять файлы к сообщениям
    Вы можете скачивать файлы