1 сезон

3 сезон

iTunes

1

iTunes

DUB Netflix

iTunes

13

1 сезон

RePack

30

Deluxe

pack

Легкие деньги

ВАЖНО

ИГРА 18+

pack

RePack

MK11

RePack

jed

RePack

fifa19

RePack

RDR2

RePack

NEED FOR SPEED™ PAYBACK

4 сезон

9 сезон

Бесстыжие 9 сезон

Все сериалы

все сериалы на PB.wtf

RePack

FAR CRY 5

Anonymous, добрый вечер, мы не успеваем до 1 числа собрать деньги на оплату серверов, помогите нам пожалуйста в это трудное время. В качестве благодарности мы отключим Вам всю рекламу на сайте (укажите свой ник в строку Ваше имя)!

×
  
Magnet ссылка

Скрибблер / Писака / The Scribbler (Джон Суитц) [2014, триллер, WEB-DLRip, Любительский (одноголосый)[Алексей Толмачев] piratbit.pw

Скрибблер через торрент piratbit.pw

Размер: 1.46 GB | Добавлен: 6 лет 8 мес. назад | Торрент скачан:140 раз
Скачать  

22-09-2014 09:19 Скрибблер Скачать торрент  

Писака / The Scribbler


Год выпуска: 2014
Страна: США
Жанр:триллер
Продолжительность:01:29:27
Перевод:Любительский (одноголосый)[Алексей Толмачев]
Режиссер:Джон Суитц

  • В ролях:

    Саша Грэй (Bunny), Кэти Кэссиди (Suki), Мишель Трахтенберг (Alice), Элиза Душку (Silk), Джина Гершон (Cleo), Майкл Империоли, Кунал Нэйэр (Karem), Билл Кэмпбелл, Гаррет Диллахант (Hogan), Ричард Рили (Officer O'Reilly), Эшлинн Йенни (Emily), Т.В. Карпио (Satomi)

  • Описание:
    События фильма разворачиваются вокруг молодой женщины, только что выписавшейся из психбольницы. Ее направляют в специальный медицинский корпус, который должен завершить лечение и подготовить девушку к нормальной жизни в социуме. Там она должна избавиться от своих побочных личностей, из-за которых загремела в психушку. После ее прибытия персонал отдела начинает вымирать с огромной скоростью, при достаточно необычных обстоятельствах...

  • Мировая премьера:1 марта 2014

    Качество: WEB-DLRip
    Формат:AVI
    Видео кодек: XviD
    Аудио кодек:AC3
    Видео: XviD, 720x304 (2.35:1), 1876 kbps, 23,976 fps, 0,358 bpp
    Аудио №1: AC3 / 2.0 / 48 kHz / 224 kbps / Русский
    Аудио №2: AC3 / 2.0 / 48 kHz / 224 kbps / Английский


    Код:

    General
    Complete name                            : D:\Торенты\The.Scribbler.2014.L1.WEB-DLRip.1.46Gb.avi
    Format                                   : AVI
    Format/Info                              : Audio Video Interleave
    File size                                : 1.46 GiB
    Duration                                 : 1h 29mn
    Overall bit rate                         : 2 338 Kbps
    Writing application                      : VirtualDubMod 1.5.10.2 (build 2540/release)
    Writing library                          : VirtualDubMod build 2540/release

    Video
    ID                                       : 0
    Format                                   : MPEG-4 Visual
    Format profile                           : Advanced Simple@L5
    Format settings, BVOP                    : 2
    Format settings, QPel                    : No
    Format settings, GMC                     : No warppoints
    Format settings, Matrix                  : Default (H.263)
    Muxing mode                              : Packed bitstream
    Codec ID                                 : XVID
    Codec ID/Hint                            : XviD
    Duration                                 : 1h 29mn
    Bit rate                                 : 1 876 Kbps
    Width                                    : 720 pixels
    Height                                   : 304 pixels
    Display aspect ratio                     : 2.35:1
    Frame rate                               : 23.976 fps
    Color space                              : YUV
    Chroma subsampling                       : 4:2:0
    Bit depth                                : 8 bits
    Scan type                                : Progressive
    Compression mode                         : Lossy
    Bits/(Pixel*Frame)                       : 0.358
    Stream size                              : 1.17 GiB (80%)
    Writing library                          : XviD 64

    Audio #1
    ID                                       : 1
    Format                                   : AC-3
    Format/Info                              : Audio Coding 3
    Mode extension                           : CM (complete main)
    Codec ID                                 : 2000
    Duration                                 : 1h 29mn
    Bit rate mode                            : Constant
    Bit rate                                 : 224 Kbps
    Channel(s)                               : 2 channels
    Channel positions                        : Front: L R
    Sampling rate                            : 48.0 KHz
    Bit depth                                : 16 bits
    Compression mode                         : Lossy
    Stream size                              : 143 MiB (10%)
    Alignment                                : Split accross interleaves
    Interleave, duration                     : 42 ms (1.00 video frame)
    Interleave, preload duration             : 500 ms

    Audio #2
    ID                                       : 2
    Format                                   : AC-3
    Format/Info                              : Audio Coding 3
    Mode extension                           : CM (complete main)
    Codec ID                                 : 2000
    Duration                                 : 1h 29mn
    Bit rate mode                            : Constant
    Bit rate                                 : 224 Kbps
    Channel(s)                               : 2 channels
    Channel positions                        : Front: L R
    Sampling rate                            : 48.0 KHz
    Bit depth                                : 16 bits
    Compression mode                         : Lossy
    Stream size                              : 143 MiB (10%)
    Alignment                                : Split accross interleaves
    Interleave, duration                     : 42 ms (1.00 video frame)
    Interleave, preload duration             : 500 ms

    Скриншоты:
    piratbit.pw



  • Скачать Скрибблер через торрент https://pic1.kartinco.top/images/61/stazu.jpg Скачать фильм Скрибблер через торрент бесплантно в хорошем качестве Описание:События фильма разворачиваются вокруг молодой женщины, только что выписавшейся из психбольницы. Ее направляют в специальный ... 10 10 5
    Торрент: Зарегистрирован [2014-09-22 09:19] · скачан: 140 раз
    Статус: T временная
    Размер: 1.46 GB
    Как cкачать? Как скачать Скрибблер через торрент | UTorrent

    % Раздел Тема Автор DL S | L
    Фильмы с авторской озвучкой [ 10.38 GB ] Скрибблер / Писака / The Scribbler [2014 BDRip 1080p Авторский [Матвеев Алексей ] Ворон Скачать
    1 | 0
    Фильмы с авторской озвучкой [ 3.7 GB ] Скрибблер / Писака / The Scribbler [2014 BDRip 720p Авторский [Матвеев Алексей ] Ворон Скачать
    1 | 0
    Фильмы с авторской озвучкой [ 1.46 GB ] Скрибблер / Писака / The Scribbler [2014 HDRip Авторский [Матвеев Алексей ] Ворон Скачать
    1 | 0
    T Фильмы 2014 (Звук TS, Cam, VO, DVO) [ 1.45 GB ] Скрибблер / Писака / The Scribbler [2014 WEB-DLRip Любительский [Savetig Studios] Ворон Скачать
    1 | 0
    T Фильмы (WEB-DL 720p, 1080p) [ 2.66 GB ] Скрибблер / Писака / The Scribbler [2014 WEB-DL 720p Любительский [Savetig Studios] Ворон Скачать
    1 | 0

    28-11-2019 20:33  

    Отключить всю рекламу на сайте

    22-09-2014 09:27 Скрибблер Скачать торрент  

    Я почему-то подумал, что про Псаки уже фильм сняли piratbit.pw



    22-09-2014 09:30 Скрибблер Скачать торрент  

    о саша грей стоит посмотреть piratbit.pw



    22-09-2014 09:34 Скрибблер Скачать торрент  

    Прочитал Псака, кто же так фильмы называет?piratbit.pw



    22-09-2014 15:24 Скрибблер Скачать торрент  

    это даже не УГ............это............унылый дерьмовый отстой, хватило на 15 минутpiratbit.pw



      Дорогой пользователь! Огромная просьба, поблагодарите релизера, оцените раздачу и оставьте свои комментарий, если Вы скачали Скрибблер через торрент бесплатно! Внесите свою лепту в развитие PiratBit!
      Комментировать посты могут только пользователи прошедшие не сложную регистрацию
      Показать сообщения:    

      Скрибблер через торрент
      Скачать бесплатно Скрибблер
      Скрибблер скачать торрент
      Скрибблер смотреть онлайн
      Cкачать фильм Скрибблер бесплатно
      Скрибблер скачать торрент в хорошем качестве
      Скрибблер смотреть онлайн бесплатно в хорошем качестве


      Вы не можете начинать темы
      Вы не можете отвечать на сообщения
      Вы не можете редактировать свои сообщения
      Вы не можете удалять свои сообщения
      Вы не можете голосовать в опросах
      Вы не можете прикреплять файлы к сообщениям
      Вы можете скачивать файлы