1 сезон

3 сезон

iTunes

1

iTunes

DUB Netflix

iTunes

13

1 сезон

RePack

30

Deluxe

pack

Легкие деньги

ВАЖНО

ИГРА 18+

pack

RePack

MK11

RePack

jed

RePack

fifa19

RePack

RDR2

RePack

NEED FOR SPEED™ PAYBACK

4 сезон

9 сезон

Бесстыжие 9 сезон

Все сериалы

все сериалы на PB.wtf

RePack

FAR CRY 5

Anonymous, добрый вечер, мы не успеваем до 1 числа собрать деньги на оплату серверов, помогите нам пожалуйста в это трудное время. В качестве благодарности мы отключим Вам всю рекламу на сайте (укажите свой ник в строку Ваше имя)!

×
  
Magnet ссылка

Во всем виноват Фрейд / Tutta colpa di Freud (Паоло Дженовезе) [2014, комедия, HDRip, Любительский (одноголосый)Игорь Головин piratbit.pw

Во всем виноват Фрейд через торрент piratbit.pw

Размер: 2.18 GB | Добавлен: 6 лет 8 мес. назад | Торрент скачан:177 раз
Скачать  

22-09-2014 08:55 Во всем виноват Фрейд Скачать торрент  

Во всем виноват Фрейд / Tutta colpa di Freud


Год выпуска: 2014
Страна: Италия
Жанр:комедия
Продолжительность:02:04:37
Перевод:Любительский (одноголосый)Игорь Головин
Режиссер:Паоло Дженовезе

  • В ролях:

    Марко Джаллини (Francesco), Виттория Пуччини (Marta), Анна Фольетта (Sara), Алессандро Гассман (Alessandro), Клаудия Джерини (Claudia), Виничио Маркиони (Fabio), Лаура Адриани (Emma), Даниэле Лиотти (Luca), Эдоардо Лео (Roberto il belloccio), Джулия Бевилакуа (Barbara), Дарио Бандьера (Ivano), Маурицио Маттиоли (Portiere studio)

  • Описание:
    Нелегкая работа - быть отцом трёх дочерей, да ещё по совместительству быть их психотерапевтом. Ведь у каждой из них своих проблемы, с которыми отец должен помочь им разобраться. Марта работает библиотекарем и влюбляется в глухого, который ворует книги. Эмме недавно исполнилось 18, а она влюбилась в пятидесятилетнего мужчину. А Сара заявила отцу, что решила круто изменить свою жизнь, ей надоело быть лесбиянкой и она хочет стать натуралкой...

  • Мировая премьера:23 января 2014

    Качество: HDRip
    Формат:AVI
    Видео кодек: XviD
    Аудио кодек:AC3
    Видео: XviD, 720x304 (2.35:1), 1659 kbps, 23,976 fps, 0,316 bpp
    Аудио №1: AC3 / 2.0 / 48 kHz / 192 kbps / RUS
    Аудио №2: AC3 / 5.1 / 48 kHz / 640 kbps / Italian


    Код:

    General
    Complete name                            : D:\Торенты\Bo.BceM.BuHoBaT.qpPeyg.2014.L1.HDRip.avi
    Format                                   : AVI
    Format/Info                              : Audio Video Interleave
    Format profile                           : OpenDML
    File size                                : 2.18 GiB
    Duration                                 : 2h 4mn
    Overall bit rate                         : 2 509 Kbps

    Video
    ID                                       : 0
    Format                                   : MPEG-4 Visual
    Format profile                           : Advanced Simple@L5
    Format settings, BVOP                    : 2
    Format settings, QPel                    : No
    Format settings, GMC                     : No warppoints
    Format settings, Matrix                  : Default (H.263)
    Codec ID                                 : XVID
    Codec ID/Hint                            : XviD
    Duration                                 : 2h 4mn
    Bit rate                                 : 1 659 Kbps
    Width                                    : 720 pixels
    Height                                   : 304 pixels
    Display aspect ratio                     : 2.35:1
    Frame rate                               : 23.976 fps
    Color space                              : YUV
    Chroma subsampling                       : 4:2:0
    Bit depth                                : 8 bits
    Scan type                                : Progressive
    Compression mode                         : Lossy
    Bits/(Pixel*Frame)                       : 0.316
    Stream size                              : 1.44 GiB (66%)
    Writing library                          : XviD 73

    Audio #1
    ID                                       : 1
    Format                                   : AC-3
    Format/Info                              : Audio Coding 3
    Mode extension                           : CM (complete main)
    Codec ID                                 : 2000
    Duration                                 : 2h 4mn
    Bit rate mode                            : Constant
    Bit rate                                 : 192 Kbps
    Channel(s)                               : 2 channels
    Channel positions                        : Front: L R
    Sampling rate                            : 48.0 KHz
    Bit depth                                : 16 bits
    Compression mode                         : Lossy
    Stream size                              : 171 MiB (8%)
    Alignment                                : Aligned on interleaves
    Interleave, duration                     : 42 ms (1.00 video frame)
    Interleave, preload duration             : 512 ms

    Audio #2
    ID                                       : 2
    Format                                   : AC-3
    Format/Info                              : Audio Coding 3
    Mode extension                           : CM (complete main)
    Codec ID                                 : 2000
    Duration                                 : 2h 4mn
    Bit rate mode                            : Constant
    Bit rate                                 : 640 Kbps
    Channel(s)                               : 6 channels
    Channel positions                        : Front: L C R, Side: L R, LFE
    Sampling rate                            : 48.0 KHz
    Bit depth                                : 16 bits
    Compression mode                         : Lossy
    Stream size                              : 570 MiB (26%)
    Alignment                                : Split accross interleaves
    Interleave, duration                     : 42 ms (1.00 video frame)
    Interleave, preload duration             : 500 ms

    Скриншоты:
    piratbit.pw



  • Скачать Во всем виноват Фрейд через торрент https://pic1.kartinco.top/images/61/stazu.jpg Скачать фильм Во всем виноват Фрейд через торрент бесплантно в хорошем качестве Описание:Нелегкая работа - быть отцом трёх дочерей, да ещё по совместительству быть их психотерапевтом. Ведь у каждой из них своих ... 9.6 10 5
    Торрент: Зарегистрирован [2014-09-22 08:55] · скачан: 177 раз
    Статус: T временная
    Размер: 2.18 GB
    Как cкачать? Как скачать Во всем виноват Фрейд через торрент | UTorrent

    28-11-2019 20:33  

    Отключить всю рекламу на сайте

      Дорогой пользователь! Огромная просьба, поблагодарите релизера, оцените раздачу и оставьте свои комментарий, если Вы скачали Во всем виноват Фрейд через торрент бесплатно! Внесите свою лепту в развитие PiratBit!
      Комментировать посты могут только пользователи прошедшие не сложную регистрацию
      Показать сообщения:    

      Во всем виноват Фрейд через торрент
      Скачать бесплатно Во всем виноват Фрейд
      Во всем виноват Фрейд скачать торрент
      Во всем виноват Фрейд смотреть онлайн
      Cкачать фильм Во всем виноват Фрейд бесплатно
      Во всем виноват Фрейд скачать торрент в хорошем качестве
      Во всем виноват Фрейд смотреть онлайн бесплатно в хорошем качестве


      Вы не можете начинать темы
      Вы не можете отвечать на сообщения
      Вы не можете редактировать свои сообщения
      Вы не можете удалять свои сообщения
      Вы не можете голосовать в опросах
      Вы не можете прикреплять файлы к сообщениям
      Вы можете скачивать файлы