1 сезон

3 сезон

iTunes

1

iTunes

DUB Netflix

iTunes

13

1 сезон

RePack

30

Deluxe

pack

Легкие деньги

ВАЖНО

ИГРА 18+

pack

RePack

MK11

RePack

jed

RePack

fifa19

RePack

RDR2

RePack

NEED FOR SPEED™ PAYBACK

4 сезон

9 сезон

Бесстыжие 9 сезон

Все сериалы

все сериалы на PB.wtf

RePack

FAR CRY 5

Anonymous, добрый вечер, мы не успеваем до 1 числа собрать деньги на оплату серверов, помогите нам пожалуйста в это трудное время. В качестве благодарности мы отключим Вам всю рекламу на сайте (укажите свой ник в строку Ваше имя)!

×
  
Magnet ссылка

Сыщик / Sleuth (Кеннет Брана / Kenneth Branagh) [2007, США, Великобритания, триллер, драма, детектив, BDRip-AVC] DUB Лицензия piratbit.pw

Сыщик через торрент piratbit.pw

Размер: 2.66 GB | Добавлен: 6 лет 8 мес. назад | Торрент скачан:271 раз
Скачать  

18-09-2014 22:00 Сыщик Скачать торрент  

Сыщик / Sleuth «Повинуйтесь правилам»
Год выпуска: 2007
Страна: США, Великобритания
Жанр: триллер, драма, детектив
Продолжительность: 01:28:41
Перевод: Дубляж - [Лицензия]
Субтитры: Русские, английские (полные, SDH)
Режиссер: Кеннет Брана / Kenneth Branagh
В ролях:


Майкл Кейн (Andrew), Джуд Лоу (Milo), Гарольд Пинтер (Man on T.V.), Кеннет Брана (Other Man on T.V., в титрах не указан), Кармел О’Салливан (Maggie, в титрах не указана)

Описание:
Преуспевающий автор детективных романов Эндрю Уайк приглашает к себе в гости Майло Тиндла, любовника своей жены. Тот прибывает в роскошный особняк писателя, где получает неожиданное предложение. Сэр Эндрю знает об их связи и даже готов отпустить жену, но на определённых условиях. Хитроумный план включает в себя инсценировку ограбления, махинации со страховкой и весьма пикантные ситуации, что в результате должно обеспечить всем безбедное существование. Писатель и гость вступают в рискованную игру, но ещё неизвестно, кто выйдет из неё победителем.

Рейтинг:

MPAA: R - Лицам до 17 лет обязательно присутствие взрослого
Качество: BDRip-AVC
Формат: MKV
Видео кодек:AVC
Аудио кодек:AC3
Видео: AVC, 1024x436 (2.35:1), 2500 kbps, 23,976 fps, 0,234 bpp
Аудио №1: русский / AC3 / 5.1 / 48 kHz / 448 kbps / 16 bit |Дублированный|
Аудио №2: русский / AC3 / 5.1 / 48 kHz / 448 kbps / 16 bit |Авторский одноголосый (Ю. Сербин)|
Аудио №3: украинский / AC3 / 5.1 / 48 kHz / 448 kbps / 16 bit|Профессиональный многоголосый|
Аудио №4: английский / AC3 / 5.1 / 48 kHz / 448 kbps / 16 bit - (оригинал)


General
Unique ID : 211744594904441599246966611531863623387 (0x9F4C868CFDD8B45EB257D7E5FBFF06DB)
Complete name : D:\Users\_KaisiK_\uTorrent\КИНО\Syshhik.2007.x264.BDRip.AVC.MediaClub.mkv
Format : Matroska
Format version : Version 2
File size : 2.66 GiB
Duration : 1h 28mn
Overall bit rate : 4 291 Kbps
Movie name : -= MediaClub =- rip by Lefevr
Encoded date : UTC 2013-12-24 16:12:45
Writing application : mkvmerge v5.4.0 ('Piper') built on Mar 10 2012 13:34:39
Writing library : libebml v1.2.3 + libmatroska v1.3.0

Video
ID : 1
Format : AVC
Format/Info : Advanced Video Codec
Format profile : High@L4.1
Format settings, CABAC : Yes
Format settings, ReFrames : 9 frames
Codec ID : V_MPEG4/ISO/AVC
Duration : 1h 28mn
Bit rate : 2 500 Kbps
Width : 1 024 pixels
Height : 436 pixels
Display aspect ratio : 2.35:1
Frame rate : 23.976 fps
Color space : YUV
Chroma subsampling : 4:2:0
Bit depth : 8 bits
Scan type : Progressive
Bits/(Pixel*Frame) : 0.234
Stream size : 1.50 GiB (56%)
Title : Syshhik.2007.x264.BDRip.AVC.MediaClub
Writing library : x264 core 130 r2273 b3065e6
Encoding settings : cabac=1 / ref=9 / deblock=1:-2:-2 / analyse=0x3:0x133 / me=umh / subme=11 / psy=1 / psy_rd=1.00:0.20 / mixed_ref=1 / me_range=48 / chroma_me=1 / trellis=2 / 8x8dct=1 / cqm=0 / deadzone=21,11 / fast_pskip=0 / chroma_qp_offset=-3 / threads=6 / lookahead_threads=1 / sliced_threads=0 / nr=0 / decimate=0 / interlaced=0 / bluray_compat=0 / constrained_intra=0 / bframes=8 / b_pyramid=2 / b_adapt=2 / b_bias=0 / direct=3 / weightb=1 / open_gop=0 / weightp=2 / keyint=240 / keyint_min=23 / scenecut=40 / intra_refresh=0 / rc=2pass / mbtree=0 / bitrate=2500 / ratetol=1.0 / qcomp=0.60 / qpmin=0 / qpmax=69 / qpstep=4 / cplxblur=20.0 / qblur=0.5 / ip_ratio=1.40 / pb_ratio=1.30 / aq=1:1.00
Language : English
Default : Yes
Forced : No

Audio #1
ID : 2
Format : AC-3
Format/Info : Audio Coding 3
Mode extension : CM (complete main)
Codec ID : A_AC3
Duration : 1h 28mn
Bit rate mode : Constant
Bit rate : 448 Kbps
Channel(s) : 6 channels
Channel positions : Front: L C R, Side: L R, LFE
Sampling rate : 48.0 KHz
Bit depth : 16 bits
Compression mode : Lossy
Stream size : 284 MiB (10%)
Title : TRACK_01_DUB_RUS
Language : Russian
Default : Yes
Forced : Yes

Audio #2
ID : 3
Format : AC-3
Format/Info : Audio Coding 3
Mode extension : CM (complete main)
Codec ID : A_AC3
Duration : 1h 28mn
Bit rate mode : Constant
Bit rate : 448 Kbps
Channel(s) : 6 channels
Channel positions : Front: L C R, Side: L R, LFE
Sampling rate : 48.0 KHz
Bit depth : 16 bits
Compression mode : Lossy
Stream size : 284 MiB (10%)
Title : TRACK_02_AVO_RUS_Serbin
Language : Russian
Default : No
Forced : No

Audio #3
ID : 4
Format : AC-3
Format/Info : Audio Coding 3
Mode extension : CM (complete main)
Codec ID : A_AC3
Duration : 1h 28mn
Bit rate mode : Constant
Bit rate : 448 Kbps
Channel(s) : 6 channels
Channel positions : Front: L C R, Side: L R, LFE
Sampling rate : 48.0 KHz
Bit depth : 16 bits
Compression mode : Lossy
Stream size : 284 MiB (10%)
Title : TRACK_03_MVO_UKR
Language : Ukrainian
Default : No
Forced : No

Audio #4
ID : 5
Format : AC-3
Format/Info : Audio Coding 3
Mode extension : CM (complete main)
Codec ID : A_AC3
Duration : 1h 28mn
Bit rate mode : Constant
Bit rate : 448 Kbps
Channel(s) : 6 channels
Channel positions : Front: L C R, Side: L R, LFE
Sampling rate : 48.0 KHz
Bit depth : 16 bits
Compression mode : Lossy
Stream size : 284 MiB (10%)
Title : TRACK_04_ORIGINAL_ENG
Language : English
Default : No
Forced : No

Text #1
ID : 6
Format : UTF-8
Codec ID : S_TEXT/UTF8
Codec ID/Info : UTF-8 Plain Text
Title : TEXT_01_SUB_RUS
Language : Russian
Default : No
Forced : No

Text #2
ID : 7
Format : UTF-8
Codec ID : S_TEXT/UTF8
Codec ID/Info : UTF-8 Plain Text
Title : TEXT_02_SUB_ENG
Language : English
Default : No
Forced : No

Text #3
ID : 8
Format : UTF-8
Codec ID : S_TEXT/UTF8
Codec ID/Info : UTF-8 Plain Text
Title : TEXT_03_SUB_ENG_SDH
Language : English
Default : No
Forced : No

Menu
00:00:00.000 : en:Chapter 01
00:07:25.111 : en:Chapter 02
00:10:02.435 : en:Chapter 03
00:15:29.970 : en:Chapter 04
00:20:37.611 : en:Chapter 05
00:24:59.331 : en:Chapter 06
00:30:02.967 : en:Chapter 07
00:36:00.908 : en:Chapter 08
00:38:35.938 : en:Chapter 09
00:44:53.524 : en:Chapter 10
00:51:30.712 : en:Chapter 11
00:56:30.553 : en:Chapter 12
01:04:19.981 : en:Chapter 13
01:09:15.359 : en:Chapter 14
01:15:16.470 : en:Chapter 15
01:20:47.092 : en:Chapter 16

[/code]
piratbit.pw



Скачать Сыщик через торрент http://i6.imageban.ru/out/2014/09/19/62f54a72fd18d6a4b03e76043f6253f8.png Скачать фильм Сыщик через торрент бесплантно в хорошем качестве Описание: Преуспевающий автор детективных романов Эндрю Уайк приглашает к себе в гости Майло Тиндла, любовника своей жены. Тот прибывает в ... 10 10 4
Торрент: Зарегистрирован [2014-09-18 22:00] · скачан: 271 раз
Статус: √ проверено
Размер: 2.66 GB
Как cкачать? Как скачать Сыщик через торрент | UTorrent

% Раздел Тема Автор DL S | L
Фильмы 2006-2008 [ 1.45 GB ] Сыщик / Sleuth [2007 HDRip DUB лицензия] lev1244v Скачать
1 | 0

28-11-2019 20:33  

Отключить всю рекламу на сайте


    Дорогой пользователь! Огромная просьба, поблагодарите релизера, оцените раздачу и оставьте свои комментарий, если Вы скачали Сыщик через торрент бесплатно! Внесите свою лепту в развитие PiratBit!
    Комментировать посты могут только пользователи прошедшие не сложную регистрацию
    Показать сообщения:    

    Сыщик через торрент
    Скачать бесплатно Сыщик
    Сыщик скачать торрент
    Сыщик смотреть онлайн
    Cкачать фильм Сыщик бесплатно
    Сыщик скачать торрент в хорошем качестве
    Сыщик смотреть онлайн бесплатно в хорошем качестве


    Вы не можете начинать темы
    Вы не можете отвечать на сообщения
    Вы не можете редактировать свои сообщения
    Вы не можете удалять свои сообщения
    Вы не можете голосовать в опросах
    Вы не можете прикреплять файлы к сообщениям
    Вы можете скачивать файлы