1 сезон

3 сезон

iTunes

1

iTunes

DUB Netflix

iTunes

13

1 сезон

RePack

30

Deluxe

pack

Легкие деньги

ВАЖНО

ИГРА 18+

pack

RePack

MK11

RePack

jed

RePack

fifa19

RePack

RDR2

RePack

NEED FOR SPEED™ PAYBACK

4 сезон

9 сезон

Бесстыжие 9 сезон

Все сериалы

все сериалы на PB.wtf

RePack

FAR CRY 5

Anonymous, доброй ночи, мы не успеваем до 1 числа собрать деньги на оплату серверов, помогите нам пожалуйста в это трудное время. В качестве благодарности мы отключим Вам всю рекламу на сайте (укажите свой ник в строку Ваше имя)!

×
  
Magnet ссылка

Холод в июле / Cold in July (Джим Микл / Jim Mickle) [2014, США, Франция, триллер, криминал, WEB-DLRip, Любительский (одноголосый)[datynet] piratbit.pw

Холод в июле через торрент piratbit.pw

Размер: 1.46 GB | Добавлен: 6 лет 8 мес. назад | Торрент скачан:338 раз
Скачать  

06-08-2014 14:52 Холод в июле Скачать торрент  


Холод в июле / Cold in July

«How many men can one bullet kill?»

Год выпуска:2014
Страна:США, Франция
Жанр:триллер, криминал
Продолжительность: 01:50:09
Перевод:Любительский (одноголосый)[datynet]
Субтитры: Нет
Режиссер:Джим Микл / Jim Mickle
В ролях:

Винесса Шоу (Ann Dane), Уайатт Расселл (Freddy), Майкл С. Холл (Richard Dane), Дон Джонсон (Jim Bob), Сэм Шепард (Russel), Ник Дамичи (Ray Price), Лэнни Флаэрти (Jack Crow), Кен Холмс (Burglar), Рэйчел Зейгер-Хааг (Valerie), Кристин Гриффит (Kay), Brianda Agramonte (Young Latina girl on tape), Хэппи Андерсон (Ted)
  • Описание:
    Ричард Дэйн, тихий и безобидный мужчина, случайно застрелил забравшегося в его дом грабителя. Полиция опознала в убитом давно находящегося в розыске преступника, труп забрали и быстро похоронили. Однако вскоре появляется отец погибшего, Бен Рассел, живущий по принципу «око за око». И теперь Дэйну приходится защищать себя и своего ребенка. А вскоре в полицейском участке на доске с фотографиями разыскиваемых преступников он видит знакомую фамилию Рассел, но абсолютно незнакомое лицо. Полицейские подставили его или произошла трагическая ошибка? Вместе с Беном и его другом, частным детективом Джимом, он начинает нешуточное сражение за торжество справедливости.


    Качество:WEB-DLRip
    Формат:AVI
    Видео кодек: XviD
    Аудио кодек:AC3
    Видео: 720x304 (2.35:1), 1635 kbps, 23,976 fps
    Аудио: 2.0/ 44 kHz/ 256 kbps/ AC3

    Код:

    General
    Complete name                            : D:\Торенты\Cold.in.July.2014.L1.WEBDLRip.1.46Gb.avi
    Format                                   : AVI
    Format/Info                              : Audio Video Interleave
    File size                                : 1.46 GiB
    Duration                                 : 1h 50mn
    Overall bit rate                         : 1 901 Kbps
    Writing application                      : VirtualDubMod 1.5.10.3 | www.virtualdub-fr.org || (build 2550/release)
    Writing library                          : VirtualDubMod build 2550/release

    Video
    ID                                       : 0
    Format                                   : MPEG-4 Visual
    Format profile                           : Advanced Simple@L5
    Format settings, BVOP                    : 2
    Format settings, QPel                    : No
    Format settings, GMC                     : No warppoints
    Format settings, Matrix                  : Default (H.263)
    Muxing mode                              : Packed bitstream
    Codec ID                                 : XVID
    Codec ID/Hint                            : XviD
    Duration                                 : 1h 50mn
    Bit rate                                 : 1 635 Kbps
    Width                                    : 720 pixels
    Height                                   : 304 pixels
    Display aspect ratio                     : 2.35:1
    Frame rate                               : 23.976 fps
    Color space                              : YUV
    Chroma subsampling                       : 4:2:0
    Bit depth                                : 8 bits
    Scan type                                : Progressive
    Compression mode                         : Lossy
    Bits/(Pixel*Frame)                       : 0.312
    Stream size                              : 1.26 GiB (86%)
    Writing library                          : XviD 64

    Audio
    ID                                       : 1
    Format                                   : AC-3
    Format/Info                              : Audio Coding 3
    Mode extension                           : CM (complete main)
    Codec ID                                 : 2000
    Duration                                 : 1h 50mn
    Bit rate mode                            : Constant
    Bit rate                                 : 256 Kbps
    Channel(s)                               : 2 channels
    Channel positions                        : Front: L R
    Sampling rate                            : 44.1 KHz
    Bit depth                                : 16 bits
    Compression mode                         : Lossy
    Stream size                              : 202 MiB (13%)
    Alignment                                : Split accross interleaves
    Interleave, duration                     : 42 ms (1.00 video frame)
    Interleave, preload duration             : 500 ms


    Скриншоты:

    Каталог Новинок (Фильмы-трейлеры, Игры, Сериалы, Мультфильмы)

    © Оформление by Raven
    piratbit.pw



  • Скачать Холод в июле через торрент https://pic1.kartinco.top/images/61/ordi9.jpg Скачать фильм Холод в июле через торрент бесплантно в хорошем качестве Описание:Ричард Дэйн, тихий и безобидный мужчина, случайно застрелил забравшегося в его дом грабителя. Полиция опознала в убитом давно ... 9.7 10 36
    Торрент: Зарегистрирован [2014-09-17 12:26] · скачан: 338 раз
    Статус: √ проверено
    Размер: 1.46 GB
    Как cкачать? Как скачать Холод в июле через торрент | UTorrent

    % Раздел Тема Автор DL S | L
    Фильмы [HD 720p, 1080p] (Хороший звук DUB, MVO) [ 9.74 GB ] Холод в июле / Cold in July [2014 BDRip Дублированное [лицензия] Ворон Скачать
    1 | 0
    Фильмы (Blu-ray, BD-Remux, HDDVD) [ 23.08 GB ] Холод в июле / Cold in July [2014 Blu-Ray Remux Дублированное [лицензия] Ворон Скачать
    1 | 0
    Фильмы 2014 [DVDrip, WEB-DLRip, HDrip] [ 1.46 GB ] Холод в июле / Cold in July [2014 HDRip Дублированное [лицензия] Ворон Скачать
    1 | 0
    Фильмы 2014 [DVDrip, WEB-DLRip, HDrip] [ 2.05 GB ] Холод в июле / Cold in July [2014 HDRip Дублированное [лицензия] Ворон Скачать
    1 | 0

    28-11-2019 20:33  

    Отключить всю рекламу на сайте

    06-08-2014 17:41 Холод в июле Скачать торрент  

    Тюю,а я почему-то думал.что это новый сериал а не кино. Где-то смотрел рецензию,говорят фильм отличный,но качать пока не буду подожду дубляжpiratbit.pw



    04-09-2014 03:19 Холод в июле Скачать торрент  

    Неплохой фильм ,даже не ожидал .piratbit.pw



    17-09-2014 13:03 Холод в июле Скачать торрент  

    Майкл Холл с усами. Не пропустите )))piratbit.pw



    17-09-2014 18:31 Холод в июле Скачать торрент  

    Майкл С. Холл, не особо к этой роли подходит, вот если с ножом и в фартуке )))))
    А так фильм неплохой и озвучка гуд, несмотря что одноголосая, рекомендуюpiratbit.pw



    18-09-2014 15:35 Холод в июле Скачать торрент  

    Интересный фильмец - концовка прикольная!!!piratbit.pw



      Дорогой пользователь! Огромная просьба, поблагодарите релизера, оцените раздачу и оставьте свои комментарий, если Вы скачали Холод в июле через торрент бесплатно! Внесите свою лепту в развитие PiratBit!
      Комментировать посты могут только пользователи прошедшие не сложную регистрацию
      Показать сообщения:    

      Холод в июле через торрент
      Скачать бесплатно Холод в июле
      Холод в июле скачать торрент
      Холод в июле смотреть онлайн
      Cкачать фильм Холод в июле бесплатно
      Холод в июле скачать торрент в хорошем качестве
      Холод в июле смотреть онлайн бесплатно в хорошем качестве


      Вы не можете начинать темы
      Вы не можете отвечать на сообщения
      Вы не можете редактировать свои сообщения
      Вы не можете удалять свои сообщения
      Вы не можете голосовать в опросах
      Вы не можете прикреплять файлы к сообщениям
      Вы можете скачивать файлы