1 сезон

1 сезон

iTunes

1

КиноПоиск HD

Кинопоиск HD

iTunes

13

1 сезон

RePack

30

Новинка

ВАЖНО

ИГРА 18+

pack

RePack

MK11
pack

Легкие деньги

RePack

jed

RePack

fifa19

RePack

RDR2

RePack

NEED FOR SPEED™ PAYBACK

4 сезон

9 сезон

Бесстыжие 9 сезон

Все сериалы

все сериалы на PB.wtf

RePack

FAR CRY 5
  
Magnet ссылка

Человек с Земли / The Man from Earth (Ричард Шенкман / Richard Schenkman) 2007, США, фантастика, драма, BDRip, Профессиональный многоголосый] piratbit.pw

Человек с Земли через торрент piratbit.pw

Размер: 1.45 GB | Добавлен: 6 лет 7 мес. назад | Торрент скачан:387 раз
Скачать  

14-09-2014 18:47 Человек с Земли Скачать торрент  

Человек с Земли / The Man from Earth«From one of the acclaimed writers of Star Trek and The Twilight Zone comes a story that transcends both time and space...»
Год выпуска: 2007
Страна: США
Жанр: фантастика, драма
Продолжительность: 01:27:08
Перевод: Профессиональный многоголосый + Авторский (одноголосый, закадровый) А. Дольский
Субтитры: Отсутствует
Режиссер: Ричард Шенкман / Richard Schenkman
В ролях:


Дэвид Ли Смит (John Oldman), Тони Тодд (Dan), Джон Биллингсли (Harry), Эллен Кроуфорд (Edith), Анника Петерсон (Sandy), Уильям Кэтт (Art), Алексис Торпе (Linda Murphy), Ричард Рили (Dr. Will Gruber), Стивен Литтлс (Moving Man #1), Чейз Страг (Moving Man #2), Робби Брайан (Officer)

Описание:
Импровизированная прощальная вечеринка профессора стала загадкой после того, как учёный рассказывает своим коллегам, что он бессмертный, который ходит по земле уже 14000 лет...

Рейтинг:

Качество: BDRip
Формат: AVI
Видео кодек:XviD
Аудио кодек:AC3
Видео: XviD, 704x400 (16:9), 1990 kbps, 23,976 fps, 0,295 bpp
Аудио №1: AC3 / 2.0 / 48 kHz / 192 kbps / 16 bit - Профессиональный (многоголосый, закадровый) Кубик в Кубе
Аудио №2: AC3 / 2.0 / 48 kHz / 192 kbps / 16 bit - Авторский (одноголосый, закадровый) А. Дольский


General
Complete name : D:\Users\_KaisiK_\Bitcomet\КИНО\Chelovek.s.Zemli.2007.DUALRUS.BDRip.XviD.AC3.-HQCLUB.avi
Format : AVI
Format/Info : Audio Video Interleave
File size : 1.45 GiB
Duration : 1h 27mn
Overall bit rate : 2 389 Kbps
Movie name : Человек с Земли / Человек с планеты Земля / The Man from Earth (2007) BDRip
Director : yaroslaigor
Genre : фантастика, драма
Writing application : VirtualDubMod 1.5.10.2 (build 2542/release)
Copyright : http://hqclub.net/
Comment : 11.09.2014

Video
ID : 0
Format : MPEG-4 Visual
Format profile : Advanced Simple@L5
Format settings, BVOP : 1
Format settings, QPel : No
Format settings, GMC : No warppoints
Format settings, Matrix : Custom
Codec ID : XVID
Codec ID/Hint : XviD
Duration : 1h 27mn
Bit rate : 1 991 Kbps
Width : 704 pixels
Height : 400 pixels
Display aspect ratio : 16:9
Frame rate : 23.976 fps
Color space : YUV
Chroma subsampling : 4:2:0
Bit depth : 8 bits
Scan type : Progressive
Compression mode : Lossy
Bits/(Pixel*Frame) : 0.295
Stream size : 1.21 GiB (83%)
Writing library : XviD 65

Audio #1
ID : 1
Format : AC-3
Format/Info : Audio Coding 3
Mode extension : CM (complete main)
Codec ID : 2000
Duration : 1h 27mn
Bit rate mode : Constant
Bit rate : 192 Kbps
Channel(s) : 2 channels
Channel positions : Front: L R
Sampling rate : 48.0 KHz
Bit depth : 16 bits
Compression mode : Lossy
Stream size : 120 MiB (8%)
Alignment : Split accross interleaves
Interleave, duration : 42 ms (1.00 video frame)
Interleave, preload duration : 500 ms

Audio #2
ID : 2
Format : AC-3
Format/Info : Audio Coding 3
Mode extension : CM (complete main)
Codec ID : 2000
Duration : 1h 27mn
Bit rate mode : Constant
Bit rate : 192 Kbps
Channel(s) : 2 channels
Channel positions : Front: L R
Sampling rate : 48.0 KHz
Bit depth : 16 bits
Compression mode : Lossy
Stream size : 120 MiB (8%)
Alignment : Split accross interleaves
Interleave, duration : 42 ms (1.00 video frame)
Interleave, preload duration : 500 ms

[/code]
piratbit.pw



Скачать Человек с Земли через торрент http://i4.imageban.ru/out/2014/09/14/21b276be00b18d2303c759792c9f1149.jpg Скачать фильм Человек с Земли через торрент бесплантно в хорошем качестве Описание: Импровизированная прощальная вечеринка профессора стала загадкой после того, как учёный рассказывает своим коллегам, что он ... 10 10 9
Торрент: Зарегистрирован [2014-09-14 18:47] · скачан: 387 раз
Статус: √ проверено
Размер: 1.45 GB
Как cкачать? Как скачать Человек с Земли через торрент | UTorrent



Последний раз редактировалось: _KaisiK_ (2014-12-11 11:31), всего редактировалось 1 раз

28-11-2019 20:33  

Отключить всю рекламу на сайте

14-09-2014 20:05 Человек с Земли Скачать торрент  

Огромное СПАСИБО что выложили и напомнили про этот фильм!!!)))piratbit.pw



14-09-2014 20:17 Человек с Земли Скачать торрент  

Классный фильмpiratbit.pw



14-09-2014 21:57 Человек с Земли Скачать торрент  

спсpiratbit.pw



    Дорогой пользователь! Огромная просьба, поблагодарите релизера, оцените раздачу и оставьте свои комментарий, если Вы скачали Человек с Земли через торрент бесплатно! Внесите свою лепту в развитие PiratBit!
    Комментировать посты могут только пользователи прошедшие не сложную регистрацию
    Показать сообщения:    

    Человек с Земли через торрент
    Скачать бесплатно Человек с Земли
    Человек с Земли скачать торрент
    Человек с Земли смотреть онлайн
    Cкачать фильм Человек с Земли бесплатно
    Человек с Земли скачать торрент в хорошем качестве
    Человек с Земли смотреть онлайн бесплатно в хорошем качестве


    Вы не можете начинать темы
    Вы не можете отвечать на сообщения
    Вы не можете редактировать свои сообщения
    Вы не можете удалять свои сообщения
    Вы не можете голосовать в опросах
    Вы не можете прикреплять файлы к сообщениям
    Вы можете скачивать файлы