Ссылка на приватное зеркало всего за 1$. Внимание количество ограничено!!!

iTunes

iTunes

iTunes

1

iTunes

iTunes

iTunes

iTunes

iTunes

30
pack

Новость дня

ВАЖНО

!!Акция!!

Alien_RageХит недели

RePack

Resident Evil 21

ИГРА 18+

pack

RePack

jed

!!Акция!!

Alien_Rage

RePack

fifa19

RePack

Assassins Creed: Odyssey

RePack

NEED FOR SPEED™ PAYBACK

4 сезон

9 сезон

Бесстыжие 9 сезон

Все сериалы

все сериалы на PB.wtf

RePack

FAR CRY 5
  

Человек со звезды / Starman (Джон Карпентер / John Carpenter) [1984, США, фантастика, драма, мелодрама, BDRip-AVC, Дубляж] piratbit.pw

Человек со звезды через торрент piratbit.pw

Размер: 2.32 GB | Добавлен: 5 лет 8 мес. назад | Торрент скачан:80 раз
Скачать  

13-09-2014 20:38 Человек со звезды Скачать торрент  

Человек со звезды / Starman«Космическая одиссея на самой жесткой из планет»
Год выпуска: 1984
Страна: США
Жанр: фантастика, драма, мелодрама, приключения
Продолжительность: 01:54:59
Перевод: Дубляж + авторский одноголосый
Субтитры: Отсутствует
Режиссер: Джон Карпентер / John Carpenter
В ролях:


Джефф Бриджес (Starman), Карен Аллен (Jenny Hayden), Чарльз Мартин Смит (Mark Shermin), Ричард Джэкел (George Fox), Роберт Фален (Major Bell), Тони Эдвардс (Sergeant Lemon), Джон Уолтер Дэвис (Brad Heinmuller), Тед Уайт (Deer Hunter), Дирк Блокер (Cop #1), М. К. Гейни (Cop #2), Шон Станек (Hot Rodder), Джордж «Бак» Флауэр (Cook)

Описание:
Человек со звезды прилетает на Землю с единственной целью: выяснить, что такое любовь. Он приземляется где-то в штате Висконсин и решает принять облик покойного мужа скромной вдовы Дженни Хайден. Он узнает от Дженни, что такое любовь, и ему уже не хочется возвращаться на корабль. Но его друзья-инопланетяне считают, что, оставшись, Человек со звезды погибнет. К тому же, странным воскрешением мужа Дженни интересуется полиция.

Рейтинг:
Бюджет:$22 000 000
MPAA: PG - Рекомендуется присутствие родителей
Качество: BDRip-AVC
Формат: MKV
Видео кодек:AVC
Аудио кодек:AC3
Видео: AVC, 1280x536 (2.40:1), 2250 kbps, 23,976 fps, 0,137 bpp
Аудио №1: русский / AC3 / 2.0 / 48 kHz / 192 kbps / 16 bit |(Дублированный, с одноголосыми вставками на места без перевода)|
Аудио №2: русский / AC3 / 5.1 / 48 kHz / 448 kbps / 16 bit |(Авторский, Ю.Живов)|


General
Unique ID : 223297690584407084392196120518264392274 (0xA7FD922540364AD7A0C5523E94F08A52)
Complete name : D:\Users\_KaisiK_\Bitcomet\КИНО\Человек со звезды.mkv
Format : Matroska
Format version : Version 4 / Version 2
File size : 2.32 GiB
Duration : 1h 54mn
Overall bit rate : 2 891 Kbps
Encoded date : UTC 2014-09-06 12:03:57
Writing application : mkvmerge v7.0.0 ('Where We Going') 32bit built on Jun 9 2014 15:08:34
Writing library : libebml v1.3.0 + libmatroska v1.4.1
DURATION : 01:54:59.296000000
NUMBER_OF_FRAMES : 215603
NUMBER_OF_BYTES : 386360576
_STATISTICS_WRITING_APP : mkvmerge v7.0.0 ('Where We Going') 32bit built on Jun 9 2014 15:08:34
_STATISTICS_WRITING_DATE_UTC : 2014-09-06 12:03:57
_STATISTICS_TAGS : BPS DURATION NUMBER_OF_FRAMES NUMBER_OF_BYTES

Video
ID : 1
Format : AVC
Format/Info : Advanced Video Codec
Format profile : High@L4.1
Format settings, CABAC : Yes
Format settings, ReFrames : 8 frames
Codec ID : V_MPEG4/ISO/AVC
Duration : 1h 54mn
Bit rate : 2 250 Kbps
Width : 1 280 pixels
Height : 536 pixels
Display aspect ratio : 2.40:1
Frame rate : 23.976 fps
Color space : YUV
Chroma subsampling : 4:2:0
Bit depth : 8 bits
Scan type : Progressive
Bits/(Pixel*Frame) : 0.137
Stream size : 1.76 GiB (76%)
Title : Starman
Writing library : x264 core 125 r2208 d9d2288
Encoding settings : cabac=1 / ref=8 / deblock=1:-1:-1 / analyse=0x3:0x133 / me=umh / subme=9 / psy=1 / psy_rd=1.00:0.10 / mixed_ref=1 / me_range=32 / chroma_me=1 / trellis=2 / 8x8dct=1 / cqm=0 / deadzone=21,11 / fast_pskip=0 / chroma_qp_offset=-3 / threads=6 / lookahead_threads=1 / sliced_threads=0 / nr=0 / decimate=1 / interlaced=0 / bluray_compat=0 / constrained_intra=0 / bframes=3 / b_pyramid=2 / b_adapt=2 / b_bias=0 / direct=3 / weightb=1 / open_gop=0 / weightp=2 / keyint=250 / keyint_min=25 / scenecut=40 / intra_refresh=0 / rc_lookahead=60 / rc=2pass / mbtree=1 / bitrate=2250 / ratetol=1.0 / qcomp=0.60 / qpmin=0 / qpmax=69 / qpstep=4 / cplxblur=20.0 / qblur=0.5 / ip_ratio=1.40 / aq=1:1.00
Language : English
Default : Yes
Forced : No

Audio #1
ID : 2
Format : AC-3
Format/Info : Audio Coding 3
Mode extension : CM (complete main)
Codec ID : A_AC3
Duration : 1h 54mn
Bit rate mode : Constant
Bit rate : 192 Kbps
Channel(s) : 2 channels
Channel positions : Front: L R
Sampling rate : 48.0 KHz
Bit depth : 16 bits
Compression mode : Lossy
Stream size : 158 MiB (7%)
Title : Дублированный
Language : Russian
Default : Yes
Forced : No

Audio #2
ID : 3
Format : AC-3
Format/Info : Audio Coding 3
Mode extension : CM (complete main)
Codec ID : A_AC3
Duration : 1h 54mn
Bit rate mode : Constant
Bit rate : 448 Kbps
Channel(s) : 6 channels
Channel positions : Front: L C R, Side: L R, LFE
Sampling rate : 48.0 KHz
Bit depth : 16 bits
Compression mode : Lossy
Stream size : 368 MiB (15%)
Title : Одноголосый закадровый, Ю.Живов
Language : Russian
Default : No
Forced : No

[/code]
piratbit.pw



Скачать Человек со звезды через торрент http://i5.imageban.ru/out/2014/09/14/7dbe4b9104a4b3db7aba49fa10477c1e.jpg Скачать фильм Человек со звезды через торрент бесплантно в хорошем качестве Описание: Человек со звезды прилетает на Землю с единственной целью: выяснить, что такое любовь. Он приземляется где-то в штате Висконсин и ... 10 10 5
Торрент: Зарегистрирован [2014-09-13 20:38] · скачан: 80 раз
Статус: √ проверено
Размер: 2.32 GB
Как cкачать? Как скачать Человек со звезды через торрент | qTorrent

28-11-2019 20:33  

Отключить всю рекламу на сайте

    Дорогой пользователь! Огромная просьба, поблагодарите релизера, оцените раздачу и оставьте свои комментарий, если Вы скачали Человек со звезды через торрент бесплатно! Внесите свою лепту в развитие PiratBit!
    Комментировать посты могут только пользователи прошедшие не сложную регистрацию
    Показать сообщения:    

    Человек со звезды через торрент
    Скачать бесплатно Человек со звезды
    Человек со звезды скачать торрент
    Человек со звезды смотреть онлайн
    Cкачать фильм Человек со звезды бесплатно
    Человек со звезды скачать торрент в хорошем качестве
    Человек со звезды смотреть онлайн бесплатно в хорошем качестве


    Вы не можете начинать темы
    Вы не можете отвечать на сообщения
    Вы не можете редактировать свои сообщения
    Вы не можете удалять свои сообщения
    Вы не можете голосовать в опросах
    Вы не можете прикреплять файлы к сообщениям
    Вы можете скачивать файлы