1 сезон

1 сезон

iTunes

1

КиноПоиск HD

Кинопоиск HD

iTunes

13

1 сезон

RePack

30

Новинка

ВАЖНО

ИГРА 18+

pack

RePack

MK11
pack

Легкие деньги

RePack

jed

RePack

fifa19

RePack

RDR2

RePack

NEED FOR SPEED™ PAYBACK

4 сезон

9 сезон

Бесстыжие 9 сезон

Все сериалы

все сериалы на PB.wtf

RePack

FAR CRY 5
  
Magnet ссылка

Грань будущего / Edge of Tomorrow (Даг Лайман) [2014, фантастика, боевик, WEB-DLRip, Авторский (одноголосый) Дмитрий Есарев piratbit.pw

Грань будущего через торрент piratbit.pw

Размер: 1.46 GB | Добавлен: 6 лет 7 мес. назад | Торрент скачан:177 раз
Скачать  

13-09-2014 09:52 Грань будущего Скачать торрент  

Грань будущего / Edge of Tomorrow
«Живи. Умри. И снова»

Год выпуска: 2014
Страна: США, Австралия
Жанр:фантастика, боевик
Продолжительность:01:53:27
Перевод:Авторский (одноголосый) Дмитрий Есарев (доступен благодаря mihey10)
Режиссер:Даг Лайман

  • В ролях:

    Том Круз (Cage), Эмили Блант (Rita), Брендан Глисон (General Brigham), Билл Пэкстон (Master Sergeant Farell), Джонас Армстронг (Skinner), Тони Вэй (Kimmel), Кик Гарри (Griff), Франц Драмех (Ford), Драгомир Мрсич (Kuntz), Шарлотта Райли (Nance), Масаёси Ханеда (Takeda), Теренс Мэйнард (Cruel Sergeant)

  • Описание:
    В недалёком будущем раса инопланетян вторгается на Землю. Никакая армия в мире не может противостоять им. Майор Уильям Кейдж умирает в бою, но случается невозможное - он оказывается во временной петле. Раз за разом он попадает в один и тот же бой, сражается и умирает... снова и снова. И каждое повторяющееся сражение приближает его к разгадке того, как победить врага.

  • Мировая премьера:28 мая 2014

    Качество: WEB-DLRip
    Формат:AVI
    Видео кодек: XviD
    Аудио кодек:AC3
    Видео: XviD, 688x288 (2.40:1), 1443 kbps, 23,976 fps, 0,304 bpp
    Аудио: AC3 / 5.1 / 48 kHz / 384 kbps / 16 bit


    Код:

    General
    Complete name                            : D:\Торенты\Gran.Budushego.2014.WEBDLRip1.46.by.Дядя_Лёша.avi
    Format                                   : AVI
    Format/Info                              : Audio Video Interleave
    File size                                : 1.46 GiB
    Duration                                 : 1h 53mn
    Overall bit rate                         : 1 837 Kbps
    Writing application                      : VirtualDubMod 1.5.10.3 | www.virtualdub-fr.org || (build 2550/release)
    Writing library                          : VirtualDubMod build 2550/release

    Video
    ID                                       : 0
    Format                                   : MPEG-4 Visual
    Format profile                           : Advanced Simple@L5
    Format settings, BVOP                    : 1
    Format settings, QPel                    : No
    Format settings, GMC                     : No warppoints
    Format settings, Matrix                  : Custom
    Codec ID                                 : XVID
    Codec ID/Hint                            : XviD
    Duration                                 : 1h 53mn
    Bit rate                                 : 1 444 Kbps
    Width                                    : 688 pixels
    Height                                   : 288 pixels
    Display aspect ratio                     : 2.40:1
    Frame rate                               : 23.976 fps
    Color space                              : YUV
    Chroma subsampling                       : 4:2:0
    Bit depth                                : 8 bits
    Scan type                                : Progressive
    Compression mode                         : Lossy
    Bits/(Pixel*Frame)                       : 0.304
    Stream size                              : 1.14 GiB (79%)
    Writing library                          : XviD 73

    Audio
    ID                                       : 1
    Format                                   : AC-3
    Format/Info                              : Audio Coding 3
    Mode extension                           : CM (complete main)
    Codec ID                                 : 2000
    Duration                                 : 1h 53mn
    Bit rate mode                            : Constant
    Bit rate                                 : 384 Kbps
    Channel(s)                               : 6 channels
    Channel positions                        : Front: L C R, Side: L R, LFE
    Sampling rate                            : 48.0 KHz
    Bit depth                                : 16 bits
    Compression mode                         : Lossy
    Stream size                              : 312 MiB (21%)
    Alignment                                : Split accross interleaves
    Interleave, duration                     : 42 ms (1.00 video frame)
    Interleave, preload duration             : 500 ms

    Скриншоты:

    Срочно! Нужна помощь!
    Поблагодарить релизера!
    piratbit.pw



  • Скачать Грань будущего через торрент https://pic.kartinco.top/images/6/stazu.jpg Скачать фильм Грань будущего через торрент бесплантно в хорошем качестве Описание:В недалёком будущем раса инопланетян вторгается на Землю. Никакая армия в мире не может противостоять им. Майор Уильям Кейдж ... 10 10 11
    Торрент: Зарегистрирован [2014-09-13 09:52] · скачан: 177 раз
    Статус: √ проверено
    Размер: 1.46 GB
    Как cкачать? Как скачать Грань будущего через торрент | UTorrent

    % Раздел Тема Автор DL S | L
    Фильмы с авторской озвучкой [ 2.75 GB ] Грань будущего / Edge of Tomorrow [2014 WEB-DLRip-AVC ] +AVO Ворон Скачать
    1 | 0

    28-11-2019 20:33  

    Отключить всю рекламу на сайте

    13-09-2014 10:12 Грань будущего Скачать торрент  

    Фильм оочень понравился! Всем советую.piratbit.pw



    13-09-2014 12:13 Грань будущего Скачать торрент  

    Типа "Исходный код"?piratbit.pw



    13-09-2014 13:11 Грань будущего Скачать торрент  

    Да да, типа исходного кода, ток интереснееpiratbit.pw



    13-09-2014 15:51 Грань будущего Скачать торрент  

    фильм огонь!твердая чирка)))посмотрите....мне оч понравилься)piratbit.pw



      Дорогой пользователь! Огромная просьба, поблагодарите релизера, оцените раздачу и оставьте свои комментарий, если Вы скачали Грань будущего через торрент бесплатно! Внесите свою лепту в развитие PiratBit!
      Комментировать посты могут только пользователи прошедшие не сложную регистрацию
      Показать сообщения:    

      Грань будущего через торрент
      Скачать бесплатно Грань будущего
      Грань будущего скачать торрент
      Грань будущего смотреть онлайн
      Cкачать фильм Грань будущего бесплатно
      Грань будущего скачать торрент в хорошем качестве
      Грань будущего смотреть онлайн бесплатно в хорошем качестве


      Вы не можете начинать темы
      Вы не можете отвечать на сообщения
      Вы не можете редактировать свои сообщения
      Вы не можете удалять свои сообщения
      Вы не можете голосовать в опросах
      Вы не можете прикреплять файлы к сообщениям
      Вы можете скачивать файлы