1 сезон

1 сезон

iTunes

1

КиноПоиск HD

Кинопоиск HD

iTunes

13

1 сезон

RePack

30

Ultimate

ВАЖНО

ИГРА 18+

pack

RePack

MK11
pack

Легкие деньги

RePack

jed

RePack

fifa19

RePack

RDR2

RePack

NEED FOR SPEED™ PAYBACK

4 сезон

9 сезон

Бесстыжие 9 сезон

Все сериалы

все сериалы на PB.wtf

RePack

FAR CRY 5
  
Magnet ссылка

Грань будущего / Edge of Tomorrow (Даг Лайман) [2014, фантастика, боевик, WEB-DLRip-AVC, Дубляж] iTunes+AVO (Дмитрий Есарев) piratbit.pw

Грань будущего через торрент piratbit.pw

Размер: 2.75 GB | Добавлен: 6 лет 7 мес. назад | Торрент скачан:346 раз
Скачать  

13-09-2014 09:22 Грань будущего Скачать торрент  

Грань будущего / Edge of Tomorrow
«Живи. Умри. И снова»

Год выпуска: 2014
Страна: США, Австралия
Жанр:фантастика, боевик
Продолжительность:01:53:27
Перевод:Дубляж - [Лицензия / iTunes]+Авторский одноголосый (Дмитрий Есарев)
Субтитры: русские, английские , украинские
Режиссер:Даг Лайман

  • В ролях:

    Том Круз (Cage), Эмили Блант (Rita), Брендан Глисон (General Brigham), Билл Пэкстон (Master Sergeant Farell), Джонас Армстронг (Skinner), Тони Вэй (Kimmel), Кик Гарри (Griff), Франц Драмех (Ford), Драгомир Мрсич (Kuntz), Шарлотта Райли (Nance), Масаёси Ханеда (Takeda), Теренс Мэйнард (Cruel Sergeant)

  • Описание:
    В недалёком будущем раса инопланетян вторгается на Землю. Никакая армия в мире не может противостоять им. Майор Уильям Кейдж умирает в бою, но случается невозможное - он оказывается во временной петле. Раз за разом он попадает в один и тот же бой, сражается и умирает... снова и снова. И каждое повторяющееся сражение приближает его к разгадке того, как победить врага.

  • Мировая премьера:28 мая 2014

    Качество: WEB-DLRip-AVC
    Формат:MKV
    Видео кодек: AVC
    Аудио кодек:AC3
    Видео: AVC, 1024x424 (2.40:1), 2315 kbps, 23,976 fps, 0,222 bpp
    Аудио №1: русский / AC3 / 5.1 / 48 kHz / 384 kbps / 16 bit || Дублированный (iTunes Russia)
    Аудио №2: русский / AC3 / 5.1 / 48 kHz / 384 kbps / 16 bit || Авторский одноголосый (Дмитрий Есарев)
    Аудио №3: английский / AC3 / 5.1 / 48 kHz / 384 kbps / 16 bit
    Навигация по главам: есть


    Код:

    General
    Unique ID                                : 192218397070934132269961930241236277180 (0x909BEAAB6A88656996AD8DACFC2C17BC)
    Complete name                            : D:\Торенты\Gran.budushego.2014.x264.WEB-DLRip.(AVC).olegek70.mkv
    Format                                   : Matroska
    Format version                           : Version 1
    File size                                : 2.75 GiB
    Duration                                 : 1h 53mn
    Overall bit rate                         : 3 470 Kbps
    Encoded date                             : UTC 2014-09-13 07:46:57
    Writing application                      : mkvmerge v2.1.0 ('Another Place To Fall') built on Aug 19 2007 13:40:07
    Writing library                          : libebml v0.7.7 + libmatroska v0.8.1

    Video
    ID                                       : 1
    Format                                   : AVC
    Format/Info                              : Advanced Video Codec
    Format profile                           : High@L4.1
    Format settings, CABAC                   : Yes
    Format settings, ReFrames                : 8 frames
    Codec ID                                 : V_MPEG4/ISO/AVC
    Duration                                 : 1h 53mn
    Bit rate                                 : 2 315 Kbps
    Width                                    : 1 024 pixels
    Height                                   : 424 pixels
    Display aspect ratio                     : 2.40:1
    Frame rate                               : 23.976 fps
    Color space                              : YUV
    Chroma subsampling                       : 4:2:0
    Bit depth                                : 8 bits
    Scan type                                : Progressive
    Bits/(Pixel*Frame)                       : 0.222
    Stream size                              : 1.78 GiB (65%)
    Writing library                          : x264 core 125 r2200 999b753
    Encoding settings                        : cabac=1 / ref=8 / deblock=1:-3:-3 / analyse=0x3:0x113 / me=umh / subme=9 / psy=1 / psy_rd=1.00:0.00 / mixed_ref=1 / me_range=32 / chroma_me=1 / trellis=2 / 8x8dct=1 / cqm=0 / deadzone=21,11 / fast_pskip=0 / chroma_qp_offset=-2 / threads=6 / lookahead_threads=1 / sliced_threads=0 / nr=0 / decimate=0 / interlaced=0 / bluray_compat=0 / constrained_intra=0 / bframes=8 / b_pyramid=2 / b_adapt=2 / b_bias=0 / direct=3 / weightb=1 / open_gop=0 / weightp=2 / keyint=240 / keyint_min=23 / scenecut=40 / intra_refresh=0 / rc=2pass / mbtree=0 / bitrate=2315 / ratetol=1.0 / qcomp=0.60 / qpmin=0 / qpmax=69 / qpstep=4 / cplxblur=20.0 / qblur=0.5 / ip_ratio=1.40 / pb_ratio=1.30 / aq=1:1.10
    Language                                 : English
    Default                                  : Yes
    Forced                                   : No

    Audio #1
    ID                                       : 2
    Format                                   : AC-3
    Format/Info                              : Audio Coding 3
    Mode extension                           : CM (complete main)
    Codec ID                                 : A_AC3
    Duration                                 : 1h 53mn
    Bit rate mode                            : Constant
    Bit rate                                 : 384 Kbps
    Channel(s)                               : 6 channels
    Channel positions                        : Front: L C R, Side: L R, LFE
    Sampling rate                            : 48.0 KHz
    Bit depth                                : 16 bits
    Compression mode                         : Lossy
    Stream size                              : 312 MiB (11%)
    Title                                    : Дублированный (iTunes Russia)
    Language                                 : Russian
    Default                                  : Yes
    Forced                                   : No

    Audio #2
    ID                                       : 3
    Format                                   : AC-3
    Format/Info                              : Audio Coding 3
    Mode extension                           : CM (complete main)
    Codec ID                                 : A_AC3
    Duration                                 : 1h 53mn
    Bit rate mode                            : Constant
    Bit rate                                 : 384 Kbps
    Channel(s)                               : 6 channels
    Channel positions                        : Front: L C R, Side: L R, LFE
    Sampling rate                            : 48.0 KHz
    Bit depth                                : 16 bits
    Compression mode                         : Lossy
    Stream size                              : 312 MiB (11%)
    Title                                    : Авторский одноголосый (Дмитрий Есарев)
    Language                                 : Russian
    Default                                  : No
    Forced                                   : No

    Audio #3
    ID                                       : 4
    Format                                   : AC-3
    Format/Info                              : Audio Coding 3
    Mode extension                           : CM (complete main)
    Codec ID                                 : A_AC3
    Duration                                 : 1h 53mn
    Bit rate mode                            : Constant
    Bit rate                                 : 384 Kbps
    Channel(s)                               : 6 channels
    Channel positions                        : Front: L C R, Side: L R, LFE
    Sampling rate                            : 48.0 KHz
    Bit depth                                : 16 bits
    Compression mode                         : Lossy
    Stream size                              : 312 MiB (11%)
    Title                                    : Оригинал
    Language                                 : English
    Default                                  : No
    Forced                                   : No

    Text #1
    ID                                       : 5
    Format                                   : UTF-8
    Codec ID                                 : S_TEXT/UTF8
    Codec ID/Info                            : UTF-8 Plain Text
    Title                                    : Русские 1
    Language                                 : Russian
    Default                                  : Yes
    Forced                                   : No

    Text #2
    ID                                       : 6
    Format                                   : UTF-8
    Codec ID                                 : S_TEXT/UTF8
    Codec ID/Info                            : UTF-8 Plain Text
    Title                                    : Русские 2
    Language                                 : Russian
    Default                                  : No
    Forced                                   : No

    Text #3
    ID                                       : 7
    Format                                   : UTF-8
    Codec ID                                 : S_TEXT/UTF8
    Codec ID/Info                            : UTF-8 Plain Text
    Title                                    : Английские
    Language                                 : English
    Default                                  : No
    Forced                                   : No

    Text #4
    ID                                       : 8
    Format                                   : UTF-8
    Codec ID                                 : S_TEXT/UTF8
    Codec ID/Info                            : UTF-8 Plain Text
    Title                                    : Украинские
    Language                                 : Ukrainian
    Default                                  : No
    Forced                                   : No

    Menu
    00:00:00.000                             : en:1.
    00:10:25.000                             : en:2.
    00:17:36.000                             : en:3.
    00:24:46.000                             : en:4.
    00:35:53.000                             : en:5.
    00:46:22.000                             : en:6.
    00:54:29.000                             : en:7.
    01:04:53.000                             : en:8.
    01:12:46.000                             : en:9.
    01:23:01.000                             : en:10.
    01:32:26.000                             : en:11.
    01:42:45.000                             : en:12.
    01:45:37.000                             : en:13.

    Скриншоты:

    Срочно! Нужна помощь! piratbit.pw



  • Скачать Грань будущего через торрент https://pic.kartinco.top/images/6/stazu.jpg Скачать фильм Грань будущего через торрент бесплантно в хорошем качестве Описание:В недалёком будущем раса инопланетян вторгается на Землю. Никакая армия в мире не может противостоять им. Майор Уильям Кейдж ... 9.3 10 17
    Торрент: Зарегистрирован [2014-09-13 09:22] · скачан: 346 раз
    Статус: √ проверено
    Размер: 2.75 GB
    Как cкачать? Как скачать Грань будущего через торрент | UTorrent

    % Раздел Тема Автор DL S | L
    Фильмы (HD 720p, 1080p) (48-60 fps) [ 3.69 GB ] Грань будущего / Edge of Tomorrow [2014 BDRip - HEVC 1080p 10 bit 60 FPS DUB] dd2d3 Скачать
    6 | 1
    Фильмы (HD 720p, 1080p) (48-60 fps) [ 9.47 GB ] Грань будущего / Edge of Tomorrow [2014 BDRip 1080p 60fps от еnvy / NNNB] DUB еnvy Скачать
    2 | 0
    Фильмы (HD 720p, 1080p) (48-60 fps) [ 4.92 GB ] Грань будущего / Edge of Tomorrow [2014 BDRip 720p / 60 fps] DUB еnvy Скачать
    1 | 0
    Фильмы (HD 720p, 1080p) (48-60 fps) [ 4.29 GB ] Грань будущего / Edge of Tomorrow [2014 BDRip-HEVC 720p / 60 FPS Dub Original] Tiberiumsun69 Скачать
    29 | 0
    Фильмы [HD 720p, 1080p] (Хороший звук DUB, MVO) [ 6.78 GB ] Грань будущего / Edge of Tomorrow [2014 BDRip-HEVC 1080p ] DUB [] bober100 Скачать
    1 | 0
    3D Видео (48-60 fps) [ 13.7 GB ] Грань будущего / Edge of Tomorrow [2014 Австралия 3D BDRip 1080p / 60 FPS Горизонтальная анаморфная стереопара ] Tiberiumsun69 Скачать
    1 | 0
    Ultra HD (UHD: 2K, 4K, 8K) — видео сверхвысокой чёткости [ 34.35 GB ] Грань будущего / Edge of Tomorrow [2014 UHD WEB-DL 2160p] 3xAVO+DUB [] bober100 Скачать
    1 | 0

    28-11-2019 20:33  

    Отключить всю рекламу на сайте

      Дорогой пользователь! Огромная просьба, поблагодарите релизера, оцените раздачу и оставьте свои комментарий, если Вы скачали Грань будущего через торрент бесплатно! Внесите свою лепту в развитие PiratBit!
      Комментировать посты могут только пользователи прошедшие не сложную регистрацию
      Показать сообщения:    

      Грань будущего через торрент
      Скачать бесплатно Грань будущего
      Грань будущего скачать торрент
      Грань будущего смотреть онлайн
      Cкачать фильм Грань будущего бесплатно
      Грань будущего скачать торрент в хорошем качестве
      Грань будущего смотреть онлайн бесплатно в хорошем качестве


      Вы не можете начинать темы
      Вы не можете отвечать на сообщения
      Вы не можете редактировать свои сообщения
      Вы не можете удалять свои сообщения
      Вы не можете голосовать в опросах
      Вы не можете прикреплять файлы к сообщениям
      Вы можете скачивать файлы