1 сезон

3 сезон

iTunes

1

iTunes

DUB Netflix

iTunes

13

1 сезон

RePack

30

Deluxe

pack

Легкие деньги

ВАЖНО

ИГРА 18+

pack

RePack

MK11

RePack

jed

RePack

fifa19

RePack

RDR2

RePack

NEED FOR SPEED™ PAYBACK

4 сезон

9 сезон

Бесстыжие 9 сезон

Все сериалы

все сериалы на PB.wtf

RePack

FAR CRY 5

Anonymous, доброе утро, мы не успеваем до 1 числа собрать деньги на оплату серверов, помогите нам пожалуйста в это трудное время. В качестве благодарности мы отключим Вам всю рекламу на сайте (укажите свой ник в строку Ваше имя)!

×
  
Magnet ссылка

Злостный видеоигровой задрот: Кино / Angry Video Game Nerd: The Movie (Джеймс Рольф) [2014, фантастика, комедия, приключения, WEBRip, Любительский (одноголосый) piratbit.pw

Злостный видеоигровой задрот: Кино через торрент piratbit.pw

Размер: 1.37 GB | Добавлен: 6 лет 9 мес. назад | Торрент скачан:418 раз
Скачать  

11-09-2014 19:48 Злостный видеоигровой задрот: Кино Скачать торрент  

Злостный видеоигровой задрот: Кино / Angry Video Game Nerd: The Movie
«The Mystery. The Suspense. The Adventure. The Button that started it all!»

Год выпуска: 2014
Страна: США
Жанр:фантастика, комедия, приключения
Продолжительность:01:54:50
Перевод:Любительский (одноголосый)Зебуро
Режиссер:Джеймс Рольф

  • В ролях:
    Давид Дастмалчян (Maintenance Soldier), Робби Рист (Alien, озвучка), Ллойд Кауфман (играет самого себя), Логан Гроув (Justin Maxwell, слухи), Джереми Суарес (Cooper), Беар МакКрири (Zombie), Даг Уокер (играет самого себя), Джеймс Рольф (The Angry Video Game Nerd), Уитни Мур (The Bride), Эдди Пепитон (Mr. Swan), Майк Матей (играет самого себя), Хелена Баррет (Sergeant McButter)


  • Описание:
    Главная тема фильма - сомнительное захоронение свыше одного миллиона копий так называемых «самых ужасных игр за всё время». По просьбе своих фанатов, ответ на эту загадку пытается найти Задрот, решив доказать, что там ничего не лежит. Федеральные организации в свою очередь считают, что он исследует Зону 51 и место падения НЛО...

  • Мировая премьера:18 января 2014

    Качество: WEBRip
    Формат:AVI
    Видео кодек: DivX 5
    Аудио кодек:AC3
    Видео: DivX 5, 720x304 (2.35:1), 1506 kbps, 23,976 fps, 0,287 bpp
    Аудио: AC3 / 2.0 / 48 kHz / 192 kbps / 16 bit


    Код:

    General
    Complete name                            : D:\Торенты\Angry.Video.Game.Nerd.The.Movi.2014.WEBRip.1400mb.avi
    Format                                   : AVI
    Format/Info                              : Audio Video Interleave
    File size                                : 1.37 GiB
    Duration                                 : 1h 54mn
    Overall bit rate                         : 1 708 Kbps
    Writing application                      : VirtualDubModRus 1.5.10.2 (build 2542/release)
    Writing library                          : VirtualDubMod build 2542/release

    Video
    ID                                       : 0
    Format                                   : MPEG-4 Visual
    Format profile                           : Advanced Simple@L5
    Format settings, BVOP                    : 1
    Format settings, QPel                    : No
    Format settings, GMC                     : No warppoints
    Format settings, Matrix                  : Default (MPEG)
    Codec ID                                 : DX50
    Codec ID/Hint                            : DivX 5
    Duration                                 : 1h 54mn
    Bit rate                                 : 1 507 Kbps
    Width                                    : 720 pixels
    Height                                   : 304 pixels
    Display aspect ratio                     : 2.35:1
    Frame rate                               : 23.976 fps
    Color space                              : YUV
    Chroma subsampling                       : 4:2:0
    Bit depth                                : 8 bits
    Scan type                                : Progressive
    Compression mode                         : Lossy
    Bits/(Pixel*Frame)                       : 0.287
    Stream size                              : 1.21 GiB (88%)
    Writing library                          : XviD 1.2.1 (UTC 2008-12-04)

    Audio
    ID                                       : 1
    Format                                   : AC-3
    Format/Info                              : Audio Coding 3
    Mode extension                           : CM (complete main)
    Codec ID                                 : 2000
    Duration                                 : 1h 54mn
    Bit rate mode                            : Constant
    Bit rate                                 : 192 Kbps
    Channel(s)                               : 2 channels
    Channel positions                        : Front: L R
    Sampling rate                            : 48.0 KHz
    Bit depth                                : 16 bits
    Compression mode                         : Lossy
    Stream size                              : 158 MiB (11%)
    Alignment                                : Split accross interleaves
    Interleave, duration                     : 42 ms (1.00 video frame)
    Interleave, preload duration             : 500 ms

    Скриншоты:

    Срочно! Нужна помощь!
    Поблагодарить релизера!
    piratbit.pw



  • Скачать Злостный видеоигровой задрот: Кино через торрент https://pic1.kartinco.top/images/61/stazu.jpg Скачать фильм Злостный видеоигровой задрот: Кино через торрент бесплантно в хорошем качестве Описание:Главная тема фильма - сомнительное захоронение свыше одного миллиона копий так называемых «самых ужасных игр за всё время». По ... 9.6 10 13
    Торрент: Зарегистрирован [2014-09-11 19:48] · скачан: 418 раз
    Статус: T временная
    Размер: 1.37 GB
    Как cкачать? Как скачать Злостный видеоигровой задрот: Кино через торрент | UTorrent

    28-11-2019 20:33  

    Отключить всю рекламу на сайте

    11-09-2014 19:49 Злостный видеоигровой задрот: Кино Скачать торрент  

    sarcasticpiratbit.pw



    11-09-2014 21:04 Злостный видеоигровой задрот: Кино Скачать торрент  

    Подожду озвучку от Кинамана и всех остальных голосов озвучивающих выпуски AVGN. Она скоро будет.piratbit.pw



      Дорогой пользователь! Огромная просьба, поблагодарите релизера, оцените раздачу и оставьте свои комментарий, если Вы скачали Злостный видеоигровой задрот: Кино через торрент бесплатно! Внесите свою лепту в развитие PiratBit!
      Комментировать посты могут только пользователи прошедшие не сложную регистрацию
      Показать сообщения:    

      Злостный видеоигровой задрот: Кино через торрент
      Скачать бесплатно Злостный видеоигровой задрот: Кино
      Злостный видеоигровой задрот: Кино скачать торрент
      Злостный видеоигровой задрот: Кино смотреть онлайн
      Cкачать фильм Злостный видеоигровой задрот: Кино бесплатно
      Злостный видеоигровой задрот: Кино скачать торрент в хорошем качестве
      Злостный видеоигровой задрот: Кино смотреть онлайн бесплатно в хорошем качестве


      Вы не можете начинать темы
      Вы не можете отвечать на сообщения
      Вы не можете редактировать свои сообщения
      Вы не можете удалять свои сообщения
      Вы не можете голосовать в опросах
      Вы не можете прикреплять файлы к сообщениям
      Вы можете скачивать файлы