1 сезон

3 сезон

iTunes

1

iTunes

DUB Netflix

iTunes

13

1 сезон

RePack

30

Deluxe

pack

Легкие деньги

ВАЖНО

ИГРА 18+

pack

RePack

MK11

RePack

jed

RePack

fifa19

RePack

RDR2

RePack

NEED FOR SPEED™ PAYBACK

4 сезон

9 сезон

Бесстыжие 9 сезон

Все сериалы

все сериалы на PB.wtf

RePack

FAR CRY 5

Anonymous, добрый вечер, мы не успеваем до 1 числа собрать деньги на оплату серверов, помогите нам пожалуйста в это трудное время. В качестве благодарности мы отключим Вам всю рекламу на сайте (укажите свой ник в строку Ваше имя)!

×
  
Magnet ссылка

Братаны важнее девчонок / Bros Before Hos (Стеффен Харс, Флип Ван Дер Куил) [2013 г., комедия, BDRip, Любительский многоголосый] piratbit.pw

Братаны важнее девчонок через торрент piratbit.pw

Размер: 1.46 GB | Добавлен: 6 лет 9 мес. назад | Торрент скачан:73 раза
Скачать  

11-09-2014 18:59 Братаны важнее девчонок Скачать торрент  

Братаны важнее девчонок / Bros Before Hos
Год выпуска: 2013
Страна: Нидерланды
Жанр: комедия
Продолжительность: 01:27:57
Перевод: Любительский многоголосый [ОХ Колобок INC]
Субтитры: отсутствуют

Режиссер: Стеффен Харс, Флип Ван Дер Куил



В ролях: Тим Харс (Max), Даниэль Арендс (Jules), Сильвия Хукс (Anna), Генри Ван Лон (René), Тео Маассен (Bart), Селин Принс (Kim), Биргит Шуурман (Mercedes), Рэймонд Тири, Нильс Веркоохен, Marieke Westenenk (Nola), Хуб Смит (Jordy), Стеффен Харс (Lingo contestant 1)

Описание: Из-за распавшегося брака их родителей, два брата - Джулс и Макс договорились никогда не ввязываться в серьезные отношения с женщинами. Они ведут разгульный образ жизни, спят каждый день с разными девушками. Однако все меняется, когда Джулс начинает встречаться с Анной, а Макс влюбляется в нее.

Качество: BDRip
Формат: AVI
Видео кодек: XviD
Аудио кодек: AC3
Видео: 2169 Кбит/сек, 720х304, 24,000 кадра/сек
Аудио: 192 Кбит/сек, 2 канала, 48,0 КГц

Релиз от: makarevich






Формат : AVI
Формат/Информация : Audio Video Interleave
Размер файла : 1,46 Гбайт
Продолжительность : 1 ч. 27 м.
Общий поток : 2370 Кбит/сек
Библиотека кодирования : VirtualDub build 35390/release

Видео
Идентификатор : 0
Формат : MPEG-4 Visual
Профиль формата : Advanced Simple@L5
Параметр BVOP формата : 2
Параметр QPel формата : Нет
Параметр GMC формата : Без точки перехода
Параметр матрицы формата : Default (H.263)
Идентификатор кодека : XVID
Идентификатор кодека/Подсказка : XviD
Продолжительность : 1 ч. 27 м.
Битрейт : 2169 Кбит/сек
Ширина : 720 пикселей
Высота : 304 пикселя
Соотношение сторон : 2,35:1
Частота кадров : 24,000 кадра/сек
Цветовое пространство : YUV
Субдискретизация насыщенности : 4:2:0
Битовая глубина : 8 бит
Тип развёртки : Прогрессивная
Метод сжатия : С потерями
Бит/(Пиксели*Кадры) : 0.413
Размер потока : 1,33 Гбайт (92%)
Библиотека кодирования : XviD 64

Аудио
Идентификатор : 1
Формат : AC-3
Формат/Информация : Audio Coding 3
Расширение режима : CM (complete main)
Параметр Endianness формата : Big
Идентификатор кодека : 2000
Продолжительность : 1 ч. 27 м.
Вид битрейта : Постоянный
Битрейт : 192 Кбит/сек
Каналы : 2 канала
Расположение каналов : Front: L R
Частота : 48,0 КГц
Битовая глубина : 16 бит
Метод сжатия : С потерями
Размер потока : 121 Мбайт (8%)
Выравнивание : Соединение по промежуткам
Продолжительность промежутка : 42 мс. (1,00 видеокадр)
Время предзагрузки промежутка : 512 мс.

piratbit.pw



Скачать Братаны важнее девчонок через торрент http://i68.fastpic.ru/big/2014/0911/e3/25d40623593def43d877244a2f9048e3.jpeg Скачать фильм Братаны важнее девчонок через торрент бесплантно в хорошем качестве Описание: Из-за распавшегося брака их родителей, два брата - Джулс и Макс договорились никогда не ввязываться в серьезные отношения с ... 7.6 10 5
Торрент: Зарегистрирован [2014-09-11 18:59] · скачан: 73 раз
Статус: T временная
Размер: 1.46 GB
Как cкачать? Как скачать Братаны важнее девчонок через торрент | UTorrent

% Раздел Тема Автор DL S | L
Фильмы 2013 [DVDrip, WEB-DLRip, HDrip] [ 1.38 GB ] Братаны важнее девчонок / Bros Before Hos [2013 HDRip Любительский [многоголосый] [ОХ Колобок INC.] Ворон Скачать
1 | 0

28-11-2019 20:33  

Отключить всю рекламу на сайте

    Дорогой пользователь! Огромная просьба, поблагодарите релизера, оцените раздачу и оставьте свои комментарий, если Вы скачали Братаны важнее девчонок через торрент бесплатно! Внесите свою лепту в развитие PiratBit!
    Комментировать посты могут только пользователи прошедшие не сложную регистрацию
    Показать сообщения:    

    Братаны важнее девчонок через торрент
    Скачать бесплатно Братаны важнее девчонок
    Братаны важнее девчонок скачать торрент
    Братаны важнее девчонок смотреть онлайн
    Cкачать фильм Братаны важнее девчонок бесплатно
    Братаны важнее девчонок скачать торрент в хорошем качестве
    Братаны важнее девчонок смотреть онлайн бесплатно в хорошем качестве


    Вы не можете начинать темы
    Вы не можете отвечать на сообщения
    Вы не можете редактировать свои сообщения
    Вы не можете удалять свои сообщения
    Вы не можете голосовать в опросах
    Вы не можете прикреплять файлы к сообщениям
    Вы можете скачивать файлы