1 сезон

3 сезон

iTunes

1

iTunes

DUB Netflix

iTunes

13

1 сезон

RePack

30

Deluxe

pack

Легкие деньги

ВАЖНО

ИГРА 18+

pack

RePack

MK11

RePack

jed

RePack

fifa19

RePack

RDR2

RePack

NEED FOR SPEED™ PAYBACK

4 сезон

9 сезон

Бесстыжие 9 сезон

Все сериалы

все сериалы на PB.wtf

RePack

FAR CRY 5

Anonymous, доброе утро, мы не успеваем до 1 числа собрать деньги на оплату серверов, помогите нам пожалуйста в это трудное время. В качестве благодарности мы отключим Вам всю рекламу на сайте (укажите свой ник в строку Ваше имя)!

×
  
Magnet ссылка

Пакт 2 / The Pact II (Даллас Ричард Халлам / Dallas Richard Hallam, Патрик Хорват / Patrick Horvath) [2014, США, ужасы, триллер, детектив, WEBRip, Любительский (одноголосый) [R.A.I.M.] piratbit.pw

Пакт 2 через торрент piratbit.pw

Размер: 698 MB | Добавлен: 6 лет 9 мес. назад | Торрент скачан:195 раз
Скачать  

10-09-2014 00:42 Пакт 2 Скачать торрент  

Пакт 2 / The Pact II
«Evil Never Let's Go»


  • Год выпуска: 2014
  • Страна: США
  • Жанр: ужасы, триллер, детектив
  • Продолжительность: 01:35:57
  • Перевод: Любительский (одноголосый) [R.A.I.M.]

  • Режиссер: Даллас Ричард Халлам / Dallas Richard Hallam, Патрик Хорват / Patrick Horvath
  • В ролях:

    Кейти Лотц (Annie), Камилла Ладдингтон (June Abbott), Скотт Майкл Фостер, Патрик Фишлер, Хейли Хадсон (Stevie), Эми Пьетц (Maggie Abbot, слухи), Брэд Грюнберг (Building Manager), Ники Мишо (Lt. Eileen Carver), Марк Стегер (Charles Barlow / Judas), Сюзанн Блок (Ellie Ford), Трент Хаага (Pink Room Receptionist), Алекс Райан (CPS Interviewer, озвучка)

  • Описание:
    Спустя всего лишь пару недель после того, как Энни Барлоу уничтожила заразу по имени Убийца Иуда, мы знакомимся с Джун, женщиной из Лос-Анджелеса, чья спокойная жизнь превращается в настоящий кошмар. Агент ФБР Кевин Дики, расследующий дело, связанное с историей Убийцы Иуды, появляется на пороге жилища Джун, чтобы принести с собой ужасные новости - по-соседству появился маньяк-имитатор, последователь Иуды! А когда Дики показывает Джун фотографию одной из жертвы имитатора, та узнает в ней женщину, чье жестокое убийство видела в своих ночных видениях. Призраки мучат Джун, проявления потустороннего с каждым разом становятся все более ужасными, как и комшары девушки - в них она уже не просто видит убийства, но сама становится убийцей.
  • Рейтинг:



  • Качество: WEBRip
  • Формат: :AVI
  • Видео кодек: XviD
  • Аудио кодек: MP3
  • Видео: 640x352 (16:9), 879 kbps, 23,976 fps, 0,163 bpp
  • Аудио: 2.0 / 48 kHz / 128 kbps /
  • Релиз от: GEKADOL
    Не нашли то, что искали? Для вас "Стол заказов" "Жмём сюда!"

    Код:

    Общее
    Полное имя                               : I:\The.Pact.2.2014.700MB.WEBRip.avi
    Формат                                   : AVI
    Формат/Информация                        : Audio Video Interleave
    Размер файла                             : 698 Мбайт
    Продолжительность                        : 1 ч. 35 м.
    Общий поток                              : 1016 Кбит/сек
    Программа кодирования                    : VirtualDubMod 1.5.10.2 (build 2540/release)
    Библиотека кодирования                   : VirtualDubMod build 2540/release

    Видео
    Идентификатор                            : 0
    Формат                                   : MPEG-4 Visual
    Профиль формата                          : Advanced Simple@L5
    Параметр BVOP формата                    : 2
    Параметр QPel формата                    : Нет
    Параметр GMC формата                     : Без точки перехода
    Параметр матрицы формата                 : Default (H.263)
    Режим смешивания                         : Сжатый битовый поток
    Идентификатор кодека                     : XVID
    Идентификатор кодека/Подсказка           : XviD
    Продолжительность                        : 1 ч. 35 м.
    Битрейт                                  : 879 Кбит/сек
    Ширина                                   : 640 пикселей
    Высота                                   : 352 пикселя
    Соотношение сторон                       : 16:9
    Частота кадров                           : 23,976 кадра/сек
    Цветовое пространство                    : YUV
    Субдискретизация насыщенности            : 4:2:0
    Битовая глубина                          : 8 бит
    Тип развёртки                            : Прогрессивная
    Метод сжатия                             : С потерями
    Бит/(Пиксели*Кадры)                      : 0.163
    Размер потока                            : 603 Мбайт (86%)
    Библиотека кодирования                   : XviD 65

    Аудио
    Идентификатор                            : 1
    Формат                                   : MPEG Audio
    Версия формата                           : Version 1
    Профиль формата                          : Layer 3
    Режим                                    : Joint stereo
    Расширение режима                        : MS Stereo
    Идентификатор кодека                     : 55
    Идентификатор кодека/Подсказка           : MP3
    Продолжительность                        : 1 ч. 35 м.
    Вид битрейта                             : Постоянный
    Битрейт                                  : 128 Кбит/сек
    Каналы                                   : 2 канала
    Частота                                  : 48,0 КГц
    Метод сжатия                             : С потерями
    Размер потока                            : 87,8 Мбайт (13%)
    Выравнивание                             : Соединение по промежуткам
    Продолжительность промежутка             : 42  мс. (1,00 видеокадр)
    Время предзагрузки промежутка            : 504  мс.
    Библиотека кодирования                   : LAME3.99r
    Настройки программы                      : -m j -V 4 -q 3 -lowpass 17 -b 128


    Скриншоты:


    piratbit.pw



  • Скачать Пакт 2 через торрент http://i67.fastpic.ru/big/2014/0910/d1/804ccac9bbe1dae8db4bfd696b25a6d1.jpg Скачать фильм Пакт 2 через торрент бесплантно в хорошем качестве Описание: Спустя всего лишь пару недель после того, как Энни Барлоу уничтожила заразу по имени Убийца Иуда, мы знакомимся с Джун, женщиной ... 9.5 10 10
    Торрент: Зарегистрирован [2014-09-10 00:42] · скачан: 195 раз
    Статус: T временная
    Размер: 698 MB
    Как cкачать? Как скачать Пакт 2 через торрент | UTorrent

    % Раздел Тема Автор DL S | L
    T Фильмы (WEB-DL 720p, 1080p) [ 3 GB ] Пакт 2 / The Pact II [2014 WEB-DL 720pЛюбительский [RAIM] перевод [Janetta] Gofa Скачать
    1 | 0

    28-11-2019 20:33  

    Отключить всю рекламу на сайте

      Дорогой пользователь! Огромная просьба, поблагодарите релизера, оцените раздачу и оставьте свои комментарий, если Вы скачали Пакт 2 через торрент бесплатно! Внесите свою лепту в развитие PiratBit!
      Комментировать посты могут только пользователи прошедшие не сложную регистрацию
      Показать сообщения:    

      Пакт 2 через торрент
      Скачать бесплатно Пакт 2
      Пакт 2 скачать торрент
      Пакт 2 смотреть онлайн
      Cкачать фильм Пакт 2 бесплатно
      Пакт 2 скачать торрент в хорошем качестве
      Пакт 2 смотреть онлайн бесплатно в хорошем качестве


      Вы не можете начинать темы
      Вы не можете отвечать на сообщения
      Вы не можете редактировать свои сообщения
      Вы не можете удалять свои сообщения
      Вы не можете голосовать в опросах
      Вы не можете прикреплять файлы к сообщениям
      Вы можете скачивать файлы