1 сезон

3 сезон

iTunes

1

iTunes

DUB Netflix

iTunes

13

1 сезон

RePack

30

Deluxe

pack

Легкие деньги

ВАЖНО

ИГРА 18+

pack

RePack

MK11

RePack

jed

RePack

fifa19

RePack

RDR2

RePack

NEED FOR SPEED™ PAYBACK

4 сезон

9 сезон

Бесстыжие 9 сезон

Все сериалы

все сериалы на PB.wtf

RePack

FAR CRY 5

Anonymous, доброе утро, мы не успеваем до 1 числа собрать деньги на оплату серверов, помогите нам пожалуйста в это трудное время. В качестве благодарности мы отключим Вам всю рекламу на сайте (укажите свой ник в строку Ваше имя)!

×
  
Magnet ссылка

Совет мистраля / Avis de mistral (Розлин Бош / Roselyne Bosch) [2014, Франция, драма, комедия, HDRip, Любительский (одноголосый)[Lord32x] piratbit.pw

Совет мистраля через торрент piratbit.pw

Размер: 1.46 GB | Добавлен: 6 лет 9 мес. назад | Торрент скачан:286 раз
Скачать  

06-09-2014 02:34 Совет мистраля Скачать торрент  

Совет мистраля / Avis de mistral


  • Год выпуска: 2014
  • Страна: Франция
  • Жанр: драма, комедия
  • Продолжительность: 01:43:54
  • Перевод: Любительский (одноголосый)[Lord32x]

  • Режиссер: Розлин Бош / Roselyne Bosch
  • В ролях:

    Жан Рено (Paul), Анна Гальена (Irène), Хлоя Жуанне (Léa), Hugo Dessioux (Adrien), Ор Атика (Magali), Lukas Pelissier (Théo), Том Либ (Tiago), Жан-Мишель Нуари (Jean-Mi), Юг Офрей (Elie), Шарлотт де Тюркейм (Laurette), Рафаэль Агоге (Émilie), Jérôme Care Aulanie (Le gendarme motard)

  • Описание:
    Лиа, Адриен и их от рождения глухой младший брат Тео отправляются на лето в Прованс к своему дедушке Полю, которого они никогда не видели раньше из-за старой семейной ссоры. Это совсем не то, о чём они мечтали. Особенно после того как их отец объявил вчера о том, что уходит из дома.
    Менее чем через двадцать четыре часа произойдёт столкновение разных поколений между подростками и дедушкой, которого они считали ненормальным. И ошибались. Бурное прошлое выйдет наружу, и все увидят Поля далёких 70-х. В течение одного лета обоим поколениям предстоит познать и понять друг друга.
  • Рейтинг:



  • Качество: HDRip
  • Формат: :AVI
  • Видео кодек: XviD
  • Аудио кодек: AC3
  • Видео: 720x304 (2.35:1), 1551 kbps, 24 fps, 0,295 bpp
  • Аудио: 5.1 / 48 kHz / 448 kbps / 16 bit
  • Релиз от: GEKADOL
    Не нашли то, что искали? Для вас "Стол заказов" "Жмём сюда!"

    Код:

    General
    Complete name                            : I:\Sovet.mistralja.2014.L1.HDRip.1.46GB.avi
    Format                                   : AVI
    Format/Info                              : Audio Video Interleave
    File size                                : 1.46 GiB
    Duration                                 : 1h 43mn
    Overall bit rate                         : 2 009 Kbps
    Writing application                      : VirtualDubMod 1.5.10.3 | www.virtualdub-fr.org || (build 2550/release)
    Writing library                          : VirtualDubMod build 2550/release

    Video
    ID                                       : 0
    Format                                   : MPEG-4 Visual
    Format profile                           : Advanced Simple@L5
    Format settings, BVOP                    : 2
    Format settings, QPel                    : No
    Format settings, GMC                     : No warppoints
    Format settings, Matrix                  : Default (MPEG)
    Codec ID                                 : XVID
    Codec ID/Hint                            : XviD
    Duration                                 : 1h 43mn
    Bit rate                                 : 1 551 Kbps
    Width                                    : 720 pixels
    Height                                   : 304 pixels
    Display aspect ratio                     : 2.35:1
    Frame rate                               : 24.000 fps
    Color space                              : YUV
    Chroma subsampling                       : 4:2:0
    Bit depth                                : 8 bits
    Scan type                                : Progressive
    Compression mode                         : Lossy
    Bits/(Pixel*Frame)                       : 0.295
    Stream size                              : 1.13 GiB (77%)
    Writing library                          : XviD 1.2.1 (UTC 2008-12-04)

    Audio
    ID                                       : 1
    Format                                   : AC-3
    Format/Info                              : Audio Coding 3
    Mode extension                           : CM (complete main)
    Codec ID                                 : 2000
    Duration                                 : 1h 43mn
    Bit rate mode                            : Constant
    Bit rate                                 : 448 Kbps
    Channel(s)                               : 6 channels
    Channel positions                        : Front: L C R, Side: L R, LFE
    Sampling rate                            : 48.0 KHz
    Bit depth                                : 16 bits
    Compression mode                         : Lossy
    Stream size                              : 333 MiB (22%)
    Alignment                                : Split accross interleaves
    Interleave, duration                     : 42 ms (1.00 video frame)
    Interleave, preload duration             : 500 ms


    Скриншоты:


    piratbit.pw



  • Скачать Совет мистраля через торрент http://i68.fastpic.ru/big/2014/0906/99/93eef47a622a1f7d26466e8845ce3699.jpg Скачать фильм Совет мистраля через торрент бесплантно в хорошем качестве Описание: Лиа, Адриен и их от рождения глухой младший брат Тео отправляются на лето в Прованс к своему дедушке Полю, которого они никогда ... 10 10 4
    Торрент: Зарегистрирован [2014-09-06 02:34] · скачан: 286 раз
    Статус: T временная
    Размер: 1.46 GB
    Как cкачать? Как скачать Совет мистраля через торрент | UTorrent

    28-11-2019 20:33  

    Отключить всю рекламу на сайте

      Дорогой пользователь! Огромная просьба, поблагодарите релизера, оцените раздачу и оставьте свои комментарий, если Вы скачали Совет мистраля через торрент бесплатно! Внесите свою лепту в развитие PiratBit!
      Комментировать посты могут только пользователи прошедшие не сложную регистрацию
      Показать сообщения:    

      Совет мистраля через торрент
      Скачать бесплатно Совет мистраля
      Совет мистраля скачать торрент
      Совет мистраля смотреть онлайн
      Cкачать фильм Совет мистраля бесплатно
      Совет мистраля скачать торрент в хорошем качестве
      Совет мистраля смотреть онлайн бесплатно в хорошем качестве


      Вы не можете начинать темы
      Вы не можете отвечать на сообщения
      Вы не можете редактировать свои сообщения
      Вы не можете удалять свои сообщения
      Вы не можете голосовать в опросах
      Вы не можете прикреплять файлы к сообщениям
      Вы можете скачивать файлы