Ссылка на приватное зеркало всего за 1$. Внимание количество ограничено!!!

iTunes

iTunes

iTunes

1

iTunes

iTunes

iTunes

iTunes

iTunes

30
pack

$ от Little Big

ВАЖНО

!!Акция!!

Alien_RageХит недели

RePack

Resident Evil 21

ИГРА 18+

pack

RePack

jed

!!Акция!!

Alien_Rage

RePack

fifa19

RePack

Assassins Creed: Odyssey

RePack

NEED FOR SPEED™ PAYBACK

4 сезон

9 сезон

Бесстыжие 9 сезон

Все сериалы

все сериалы на PB.wtf

RePack

FAR CRY 5
  

Когда Гарри встретил Салли / When Harry Met Sally (Роб Райнер) [1989, драма, мелодрама, комедия, BDRip] MVO (20 th Century Fox) + MVO (Фортуна фильм) piratbit.pw

Когда Гарри встретил Салли через торрент piratbit.pw

Размер: 2.19 GB | Добавлен: 5 лет 9 мес. назад | Торрент скачан:41 раз
Скачать  

04-09-2014 18:29 Когда Гарри встретил Салли Скачать торрент  

Когда Гарри встретил Салли / When Harry Met Sally
«Can men and women be friends or does always sex get in the way?»


Год выпуска: 1989
Страна: США
Жанр: драма, мелодрама, комедия
Продолжительность: 01:35:31
Перевод: Профессиональный (многоголосый закадровый)

Режиссер: Роб Райнер
Сценарий: Нора Эфрон
Продюсер: Роб Райнер, Эндрю Шайнмен, Нора Эфрон
Оператор: Барри Зонненфельд
Художник: Джейн Маски, Глория Грешам, Джордж Р. Нельсон
Монтаж: Роберт Лейтон

В ролях: Билли Кристал / Billy Crystal (Harry Burns), Мег Райан / Meg Ryan (Sally Albright), Кэрри Фишер / Carrie Fisher (Marie), Бруно Кёрби / Bruno Kirby (Jess), Стивен Форд / Steven Ford (Joe), Лиза Джейн Перски / Lisa Jane Persky (Alice), Мишель Никастро / Michelle Nicastro (Amanda), Гретхен Палмер / Gretchen Palmer (Stewardess)


Описание: Гарри и Салли знакомы со времен сотворения мира. Они вместе учились, приходят друг другу на выручку в любых жизненных передрягах, помогают в поисках близкого человека. Даже когда они теряют друг друга из виду, судьба сводит их снова и снова. Они лучшие друзья уже тысячу лет. Но их дружба постоянно находится под угрозой. Обоих настойчиво мучает вопрос: не следует ли им стать больше, чем друзьями?Могут ли мужчина и женщина дружить по-настоящему? Или такая дружба неминуемо рано или поздно заканчивается более тесными отношениями?

Бюджет: $16 000 000
Сборы в США: $92 823 546
Зрители: США 23.4 млн , Германия (ФРГ) 2.56 млн , Франция 1.85 млн
Премьера (мир): 12 июля 1989
Релиз на DVD: 24 сентября 2009, «Двадцатый Век Фокс СНГ»
Релиз на Blu-Ray: 7 июля 2011, «Двадцатый Век Фокс СНГ»
Рейтинг MPAA: Лицам до 17 лет обязательно присутствие взрослого


Качество: BDRip
Формат: AVI
Видео кодек: XviD
Аудио кодек: AC3
Видео: 704x384 (16:9), 23.976 fps, XviD, 2 164 Kbps
Аудио: Аудио #1: AC3, 448 Kbps, 48.0 KHz, 6 ch Профессиональный (многоголосый, закадровый) 20 th Century Fox
Аудио #2: AC3, 192 Kbps, 48.0 KHz, 2 ch Профессиональный (многоголосый, закадровый) Фортуна фильм
Аудио #3: AC3, 448 Kbps, 48.0 KHz, 6 ch Оригинал (Английский)
· Альберт Брукс отказался от роли Гарри Бернса.

· Американский институт кино поставил «Когда Гарри встретил Салли» на шестое место в десятке лучших романтических комедий.

· Персонаж Гарри частично основан на характере Роба Райнера. А привычка Салли заказывать странно еду была позаимствована у сценариста Норы Эфрон.

· Истории знакомств, которые периодически рассказывают супружеские пары, настоящие. Их Роб Райнер собирал специально для фильма. Мужей и жен, правда, играют актеры.

· Женщина, которая после сцены «симуляции оргазма» говорит: «Мне то же, что и ей», мама Роба Райнера.

· До того, как называть картину «Когда Гарри встретил Салли», Роб Райнер и Нора Эфрон рассмотрели следующие варианты: «Просто друзья», «Парень встречает девушку», «Голубая луна», «Слова любви», «Гарри, это Салли», «Как они встретились», «Это должен быть ты», «Игра меланхоличного ребенка». Нора Эфрон призналась потом, что выбранное название ленты ей не нравится, и она с удовольствием вернула бы все назад, чтобы поменять его.

· Голос за кадром, который говорит в финальной сцене: «До Нового года остается 10 секунд», принадлежит режиссеру фильма.

· Молли Рингуолд была предложена роль Салли, но она была вынуждена отказаться от нее из-за плотного съемочного графика. В 2004 году Рингуолд сыграла Салли в Вест-Энде.

· Когда Гарри и Салли разговаривают по телефону, Гарри читает «Мизери» Стивена Кинга. В следующем году Роб Райнер снял экранизацию этого романа.

· Песня It Had To Be You звучала в «Касабланке» (1942), которую герои смотрят и обсуждают.

· В фильме также сыграла Трейси Рейнер, дочь режиссера Пенни Маршалл, которая взяла фамилию своего отчима — Роба Райнера.

· В финале первоначального варианта сценария Гарри и Салли не оставались вместе.

Код:

General
Complete name                    : Kogda.Garri.vstretil.Salli.1989.TRIPLE.BDRip.XviD.AC3.avi
Format                           : AVI
Format/Info                      : Audio Video Interleave
Format profile                   : OpenDML
File size                        : 2.19 GiB
Duration                         : 1h 35mn
Overall bit rate                 : 3 275 Kbps

Video
ID                               : 0
Format                           : MPEG-4 Visual
Format profile                   : Advanced Simple@L5
Format settings, BVOP            : Yes
Format settings, QPel            : No
Format settings, GMC             : No warppoints
Format settings, Matrix          : Custom
Codec ID                         : XVID
Codec ID/Hint                    : XviD
Duration                         : 1h 35mn
Bit rate                         : 2 164 Kbps
Width                            : 704 pixels
Height                           : 384 pixels
Display aspect ratio             : 16:9
Frame rate                       : 23.976 fps
Color space                      : YUV
Chroma subsampling               : 4:2:0
Bit depth                        : 8 bits
Scan type                        : Progressive
Bits/(Pixel*Frame)               : 0.334
Stream size                      : 1.44 GiB (66%)
Writing library                  : XviD 62

Audio #1
ID                               : 1
Format                           : AC-3
Format/Info                      : Audio Coding 3
Mode extension                   : CM (complete main)
Codec ID                         : 2000
Duration                         : 1h 35mn
Bit rate mode                    : Constant
Bit rate                         : 448 Kbps
Channel(s)                       : 6 channels
Channel positions                : Front: L C R, Side: L R, LFE
Sampling rate                    : 48.0 KHz
Bit depth                        : 16 bits
Stream size                      : 306 MiB (14%)
Alignment                        : Split accross interleaves
Interleave, duration             : 42 ms (1.00 video frame)
Interleave, preload duration     : 500 ms

Audio #2
ID                               : 2
Format                           : AC-3
Format/Info                      : Audio Coding 3
Mode extension                   : CM (complete main)
Codec ID                         : 2000
Duration                         : 1h 35mn
Bit rate mode                    : Constant
Bit rate                         : 192 Kbps
Channel(s)                       : 2 channels
Channel positions                : Front: L R
Sampling rate                    : 48.0 KHz
Bit depth                        : 16 bits
Stream size                      : 131 MiB (6%)
Alignment                        : Split accross interleaves
Interleave, duration             : 42 ms (1.00 video frame)
Interleave, preload duration     : 500 ms

Audio #3
ID                               : 3
Format                           : AC-3
Format/Info                      : Audio Coding 3
Mode extension                   : CM (complete main)
Codec ID                         : 2000
Duration                         : 1h 35mn
Bit rate mode                    : Constant
Bit rate                         : 448 Kbps
Channel(s)                       : 6 channels
Channel positions                : Front: L C R, Side: L R, LFE
Sampling rate                    : 48.0 KHz
Bit depth                        : 16 bits
Stream size                      : 306 MiB (14%)
Alignment                        : Split accross interleaves
Interleave, duration             : 42 ms (1.00 video frame)
Interleave, preload duration     : 500 ms

piratbit.pw



Скачать Когда Гарри встретил Салли через торрент http://i65.fastpic.ru/big/2014/0904/bd/c88b3a502abbc3e4f570d0349d10fbbd.jpg Скачать фильм Когда Гарри встретил Салли через торрент бесплантно в хорошем качестве Описание: Гарри и Салли знакомы со времен сотворения мира. Они вместе учились, приходят друг другу на выручку в любых жизненных передрягах, ... 10 10 1
Торрент: Зарегистрирован [2014-09-04 18:29] · скачан: 41 раз
Статус: √ проверено
Размер: 2.19 GB
Как cкачать? Как скачать Когда Гарри встретил Салли через торрент | qTorrent

% Раздел Тема Автор DL S | L
Фильмы [HD 720p, 1080p] (Хороший звук DUB, MVO) [ 12.77 GB ] Когда Гарри встретил Салли / When Harry Met Sally... [1989 BDRip 1080p by msltel] 2 x MVO AVO msltel Скачать
1 | 0
Фильмы [HD 720p, 1080p] (Хороший звук DUB, MVO) [ 4.81 GB ] Когда Гарри встретил Салли / When Harry Met Sally... [1989 BDRip 720p by msltel] 2 x MVO AVO msltel Скачать
1 | 0

28-11-2019 20:33  

Отключить всю рекламу на сайте

    Дорогой пользователь! Огромная просьба, поблагодарите релизера, оцените раздачу и оставьте свои комментарий, если Вы скачали Когда Гарри встретил Салли через торрент бесплатно! Внесите свою лепту в развитие PiratBit!
    Комментировать посты могут только пользователи прошедшие не сложную регистрацию
    Показать сообщения:    

    Когда Гарри встретил Салли через торрент
    Скачать бесплатно Когда Гарри встретил Салли
    Когда Гарри встретил Салли скачать торрент
    Когда Гарри встретил Салли смотреть онлайн
    Cкачать фильм Когда Гарри встретил Салли бесплатно
    Когда Гарри встретил Салли скачать торрент в хорошем качестве
    Когда Гарри встретил Салли смотреть онлайн бесплатно в хорошем качестве


    Вы не можете начинать темы
    Вы не можете отвечать на сообщения
    Вы не можете редактировать свои сообщения
    Вы не можете удалять свои сообщения
    Вы не можете голосовать в опросах
    Вы не можете прикреплять файлы к сообщениям
    Вы можете скачивать файлы