1 сезон

3 сезон

iTunes

1

iTunes

DUB Netflix

iTunes

13

1 сезон

RePack

30

Deluxe

pack

Легкие деньги

ВАЖНО

ИГРА 18+

pack

RePack

MK11

RePack

jed

RePack

fifa19

RePack

RDR2

RePack

NEED FOR SPEED™ PAYBACK

4 сезон

9 сезон

Бесстыжие 9 сезон

Все сериалы

все сериалы на PB.wtf

RePack

FAR CRY 5

Anonymous, доброе утро, мы не успеваем до 1 числа собрать деньги на оплату серверов, помогите нам пожалуйста в это трудное время. В качестве благодарности мы отключим Вам всю рекламу на сайте (укажите свой ник в строку Ваше имя)!

×
  
Magnet ссылка

Отцовство / Vaterfreuden (Маттиас Швайгхефер) [2014 г., Мелодрама, Комедия, HDRip, Любительский одноголосый] piratbit.pw

Отцовство через торрент piratbit.pw

Размер: 1.37 GB | Добавлен: 6 лет 9 мес. назад | Торрент скачан:158 раз
Скачать  

04-09-2014 07:56 Отцовство Скачать торрент  

Отцовство / Vaterfreuden
Год выпуска: 2014
Страна: Германия
Жанр: Мелодрама, Комедия
Продолжительность: 1 ч. 50 м.
Перевод: Любительский одноголосый

Режиссер: Маттиас Швайгхефер
Продюссер: Марко Бекманн, Квирин Берг, Дан Мааг
Сценарий: Мурмель Клаузен, Кристиан Лира, Себастьян Велингс

Бюджет: €5 500 000
Премьера в мире: 6 февраля 2014

MPAA: 12+ зрителям, достигшим 12 лет
IMDb: 5.40 (680)
Кинопоиск: 7.182 29

В ролях: Маттиас Швайгхефер, Изабелл Поллак, Фридрих Мюке, Том Бек, Ясмин Абделати, Марк Бенжамин, Мориц Грове

Описание: Феликс — тридцатилетний холостяк, гоняющий по Мюнхену на велосипеде, иногда видящийся со знакомой девушкой ради коротких, но продуктивных встреч. Все его друзья уже давно ведут семейную жизнь, имеют по паре-тройке детей и погрязли в быту. Жизнь Феликса вполне его устраивает, до того момента, как к нему вваливается его незадачливый младший брат со своим зверьком. И вот тут-то жизнь парня резко меняется. Зверек умудряется в буквальном смысле лишить парня возможности быть отцом.
«Отцовство» — это комедия немецкого производства, режиссером которой выступил Швайгхёфер и сам же и сыграл главную роль. Надо сказать, Маттиас с регулярной частотой стал выпускать фильмы, и это уже третье кино, которое он срежиссировал. Первым фильмом была картина «What a man», но, как говорят, первый блин всегда комом. Второй фильм, Schlussmacher, получился у начинающего режиссера намного лучше.

Швайгхефер снимает комедии, которые не на что не претендуют, однако являются добрыми, хорошими фильмами, которые пропагандируют какие-либо ценности. В случае с фильмом «Отцовство» — это семейные ценности.

Главный герой, Феликс — тридцатилетний холостяк, гоняющий по Мюнхену на велосипеде, иногда видящийся со знакомой девушкой ради коротких, но продуктивных встреч. Все его друзья уже давно ведут семейную жизнь, имеют по паре-тройке детей и погрязли в быту. Жизнь Феликса вполне его устраивает, до того момента, как к нему вваливается его незадачливый младший брат со своим зверьком. И вот тут-то жизнь парня резко меняется. Зверек умудряется в буквальном смысле лишить парня возможности быть отцом. И поскольку люди начинают ценить что-то только тогда, когда они это теряют, героя Швайгхёфера внезапно осеняет, что он в будущем бы хотел завести семью детей, но больше не сможет этого сделать. Но как нельзя кстати еще до индедента со зверьком, братья успели стать донорами спермы, так что для главного героя еще не все потеряно.

Этот фильм о том, как важна человеку семья, о любви и заботе и счастье быть рядом с близкими.

Несмотря на достаточно глупый сюжет, фильм снял неплохо, а также в нем присутствует много забавных моментов. Игра актеров также понравилась, Швайгхёфер как всегда на высоте, а его друг Фридрих Мюке, снявшийся с Маттиасом уже в 3х фильмах, очень преобразился и тем самым поразил.

Если фильм будет переведен на русский язык и выйдет в российский прокат — рекомендую тем, кому нравится Швайгхёфер и фильмы с ним, а также фильмы в стиле картин Тиля Швайгера «Красавчик», «Соблазнитель». Это легкая добрая комедия с прекрасным концом. За это зеленый цвет рецензии.

Качество: HDRip
Формат: AVI
Видео кодек: XviD
Аудио кодек: AC3
Видео: 720x304 (2.37:1), 24 fps, XviD build 50 ~1569 kbps avg, 0.30 bit/pixel
Аудио#1: 48 kHz, AC3 Dolby Digital, 2/0 (L,R) ch, ~192 kbps










Общее
Полное имя : D:\torrent\Otcovstvo.2014.L1.HDRip.avi
Формат : AVI
Формат/Информация : Audio Video Interleave
Размер файла : 1,37 Гбайт
Продолжительность : 1 ч. 50 м.
Общий поток : 1771 Кбит/сек
Программа кодирования : VirtualDubMod 1.5.10.3 | www.virtualdub-fr.org || (build 2550/release)
Библиотека кодирования : VirtualDubMod build 2550/release

Видео
Идентификатор : 0
Формат : MPEG-4 Visual
Профиль формата : Advanced Simple@L5
Параметр BVOP формата : 2
Параметр QPel формата : Нет
Параметр GMC формата : Без точки перехода
Параметр матрицы формата : Default (MPEG)
Идентификатор кодека : XVID
Идентификатор кодека/Подсказка : XviD
Продолжительность : 1 ч. 50 м.
Битрейт : 1570 Кбит/сек
Ширина : 720 пикселей
Высота : 304 пикселя
Соотношение сторон : 2,35:1
Частота кадров : 24,000 кадра/сек
Цветовое пространство : YUV
Субдискретизация насыщенности : 4:2:0
Битовая глубина : 8 бит
Тип развёртки : Прогрессивная
Метод сжатия : С потерями
Бит/(Пиксели*Кадры) : 0.299
Размер потока : 1,21 Гбайт (89%)
Библиотека кодирования : XviD 1.2.1 (UTC 2008-12-04)

Аудио
Идентификатор : 1
Формат : AC-3
Формат/Информация : Audio Coding 3
Расширение режима : CM (complete main)
Параметр Endianness формата : Big
Идентификатор кодека : 2000
Продолжительность : 1 ч. 50 м.
Вид битрейта : Постоянный
Битрейт : 192 Кбит/сек
Каналы : 2 канала
Расположение каналов : Front: L R
Частота : 48,0 КГц
Битовая глубина : 16 бит
Метод сжатия : С потерями
Размер потока : 152 Мбайт (11%)
Выравнивание : Разделение по промежуткам
Продолжительность промежутка : 42 мс. (1,00 видеокадр)
Время предзагрузки промежутка : 500 мс.

piratbit.pw



Скачать Отцовство через торрент https://pic1.kartinco.top/images/71/p6ww2.jpg Скачать фильм Отцовство через торрент бесплантно в хорошем качестве Описание: Феликс — тридцатилетний холостяк, гоняющий по Мюнхену на велосипеде, иногда видящийся со знакомой девушкой ради коротких, но ... 10 10 5
Торрент: Зарегистрирован [2014-09-04 07:56] · скачан: 158 раз
Статус: T временная
Размер: 1.37 GB
Как cкачать? Как скачать Отцовство через торрент | UTorrent

28-11-2019 20:33  

Отключить всю рекламу на сайте

    Дорогой пользователь! Огромная просьба, поблагодарите релизера, оцените раздачу и оставьте свои комментарий, если Вы скачали Отцовство через торрент бесплатно! Внесите свою лепту в развитие PiratBit!
    Комментировать посты могут только пользователи прошедшие не сложную регистрацию
    Показать сообщения:    

    Отцовство через торрент
    Скачать бесплатно Отцовство
    Отцовство скачать торрент
    Отцовство смотреть онлайн
    Cкачать фильм Отцовство бесплатно
    Отцовство скачать торрент в хорошем качестве
    Отцовство смотреть онлайн бесплатно в хорошем качестве


    Вы не можете начинать темы
    Вы не можете отвечать на сообщения
    Вы не можете редактировать свои сообщения
    Вы не можете удалять свои сообщения
    Вы не можете голосовать в опросах
    Вы не можете прикреплять файлы к сообщениям
    Вы можете скачивать файлы