1 сезон

1 сезон

iTunes

1

КиноПоиск HD

Кинопоиск HD

iTunes

13

1 сезон

RePack

30

Ultimate

ВАЖНО

ИГРА 18+

pack

RePack

MK11
pack

Легкие деньги

RePack

jed

RePack

fifa19

RePack

RDR2

RePack

NEED FOR SPEED™ PAYBACK

4 сезон

9 сезон

Бесстыжие 9 сезон

Все сериалы

все сериалы на PB.wtf

RePack

FAR CRY 5
  
Magnet ссылка

Заставь меня содрогнуться / Mo 6/5 pak ma tha phi (Пой Арнон) [2013 г., ужасы, комедия, BDRip, Авторский одноголосый "А.Карповский"] piratbit.pw

Заставь меня содрогнуться через торрент piratbit.pw

Размер: 2.18 GB | Добавлен: 6 лет 7 мес. назад | Торрент скачан:50 раз
Скачать  

03-09-2014 17:09 Заставь меня содрогнуться Скачать торрент  

Заставь меня содрогнуться / Mo 6/5 pak ma tha phi
Год выпуска: 2013
Страна: Таиланд
Жанр: ужасы, комедия
Продолжительность: 01:44:08
Перевод: Авторский одноголосый (А.Карповский)

Режиссер: Пой Арнон

В ролях: Кунатип Пинпрадуб, Киттипат Самарнтрагулчай, Ворочай Сириконгсуван, Риттичай Тасарика, Пувадол Вечвонгса

Описание: История о группе студентов, которые любят искать и призывать духов. Однажды их бесстрашие сводит их с настоящим призраком…

Качество: BDRip (Рип с BD-Remux 1080p)
Формат: AVI
Видео кодек: XviD
Аудио кодек: AC3
Видео: MPEG4, XviD, 720x304 (2.35:1), 23.976 fps, 2 537 Kbps (0.483 bit/pixel)
Аудио: AC-3, 48.0 KHz, 6 ch, 448 Kbps, CBR

скриншот   скриншот   скриншот   скриншот   скриншот   скриншот   скриншот   скриншот  

Общее
Полное имя : G:\кино\Заставь меня содрогнуться.2013.BDRip.avi
Формат : AVI
Формат/Информация : Audio Video Interleave
Профиль формата : OpenDML
Размер файла : 2,18 Гбайт
Продолжительность : 1 ч. 44 м.
Общий поток : 2997 Кбит/сек
Программа кодирования : VirtualDubMod 1.5.10.3 | www.virtualdub-fr.org || (build 2550/release)
Библиотека кодирования : VirtualDubMod build 2550/release

Видео
Идентификатор : 0
Формат : MPEG-4 Visual
Профиль формата : Advanced Simple@L5
Параметр BVOP формата : 2
Параметр QPel формата : Нет
Параметр GMC формата : Без точки перехода
Параметр матрицы формата : Default (H.263)
Идентификатор кодека : XVID
Идентификатор кодека/Подсказка : XviD
Продолжительность : 1 ч. 44 м.
Битрейт : 2537 Кбит/сек
Ширина : 720 пикселей
Высота : 304 пикселя
Соотношение сторон : 2,35:1
Частота кадров : 23,976 кадра/сек
Цветовое пространство : YUV
Субдискретизация насыщенности : 4:2:0
Битовая глубина : 8 бит
Тип развёртки : Прогрессивная
Метод сжатия : С потерями
Бит/(Пиксели*Кадры) : 0.483
Размер потока : 1,85 Гбайт (85%)
Библиотека кодирования : XviD 1.2.1 (UTC 2008-12-04)

Аудио
Идентификатор : 1
Формат : AC-3
Формат/Информация : Audio Coding 3
Расширение режима : CM (complete main)
Параметр Endianness формата : Big
Идентификатор кодека : 2000
Продолжительность : 1 ч. 44 м.
Вид битрейта : Постоянный
Битрейт : 448 Кбит/сек
Каналы : 6 каналов
Расположение каналов : Front: L C R, Side: L R, LFE
Частота : 48,0 КГц
Битовая глубина : 16 бит
Метод сжатия : С потерями
Размер потока : 334 Мбайт (15%)
Выравнивание : Разделение по промежуткам
Продолжительность промежутка : 42 мс. (1,00 видеокадр)
Время предзагрузки промежутка : 500 мс.

piratbit.pw



Скачать Заставь меня содрогнуться через торрент https://pic.kartinco.top/images/7/m4twc.jpg Скачать фильм Заставь меня содрогнуться через торрент бесплантно в хорошем качестве Описание: История о группе студентов, которые любят искать и призывать духов. Однажды их бесстрашие сводит их с настоящим ... 9.3 10 6
Торрент: Зарегистрирован [2014-09-03 17:09] · скачан: 50 раз
Статус: √ проверено
Размер: 2.18 GB
Как cкачать? Как скачать Заставь меня содрогнуться через торрент | UTorrent

28-11-2019 20:33  

Отключить всю рекламу на сайте

    Дорогой пользователь! Огромная просьба, поблагодарите релизера, оцените раздачу и оставьте свои комментарий, если Вы скачали Заставь меня содрогнуться через торрент бесплатно! Внесите свою лепту в развитие PiratBit!
    Комментировать посты могут только пользователи прошедшие не сложную регистрацию
    Показать сообщения:    

    Заставь меня содрогнуться через торрент
    Скачать бесплатно Заставь меня содрогнуться
    Заставь меня содрогнуться скачать торрент
    Заставь меня содрогнуться смотреть онлайн
    Cкачать фильм Заставь меня содрогнуться бесплатно
    Заставь меня содрогнуться скачать торрент в хорошем качестве
    Заставь меня содрогнуться смотреть онлайн бесплатно в хорошем качестве


    Вы не можете начинать темы
    Вы не можете отвечать на сообщения
    Вы не можете редактировать свои сообщения
    Вы не можете удалять свои сообщения
    Вы не можете голосовать в опросах
    Вы не можете прикреплять файлы к сообщениям
    Вы можете скачивать файлы