1 сезон

1 сезон

iTunes

1

КиноПоиск HD

Кинопоиск HD

iTunes

13

1 сезон

RePack

30

Новинка

ВАЖНО

ИГРА 18+

pack

RePack

MK11
pack

Легкие деньги

RePack

jed

RePack

fifa19

RePack

RDR2

RePack

NEED FOR SPEED™ PAYBACK

4 сезон

9 сезон

Бесстыжие 9 сезон

Все сериалы

все сериалы на PB.wtf

RePack

FAR CRY 5
  
Magnet ссылка

Квартирный вопрос / Медовый месячник / The Honeymooners (Джон Шульц / John Schultz) [2005 г., драма, мелодрама, комедия, семейный, WEB-DL 1080p] [AVO] (А.Карповский) + [Orig] Eng piratbit.pw

Квартирный вопрос через торрент piratbit.pw

Размер: 3.04 GB | Добавлен: 6 лет 7 мес. назад | Торрент скачан:23 раза
Скачать  

02-09-2014 16:25 Квартирный вопрос Скачать торрент  

Квартирный вопрос / Медовый месячник / The Honeymooners
Год выпуска: 2005
Страна: США
Жанр: драма, мелодрама, комедия, семейный
Продолжительность: 01:29:39
Перевод: Авторский (одноголосый, закадровый) [Антон Карповский]
Субтитры: нет
Оригинальная аудио дорожка: Английский
Навигация по главам: Есть

Режиссер: Джон Шульц / John Schultz

В ролях: Седрик «Развлекатель» /Cedric the Entertainer/, Майк Еппс /Mike Epps/, Гэбриэл Юнион /Gabrielle Union/, Реджина Холл /Regina Hall/, Эрик Штольц /Eric Stoltz/, Джон Легуизамо /John Leguizamo

Описание: Водитель автобуса Ральф и ассенизатор Эд мечтают разбогатеть и перебраться с женами в престижный район. Для этого они готовы перепробовать все способы внезапного обогащения и не только играют на тотализаторе и участвуют в лотереях, но и с металлоискателем в руках отправляются на поиски сокровищ.



Качество: WEB-DL 1080p
Формат: MKV
Видео кодек: AVC
Аудио кодек: AC3
Видео: V_MPEG4/ISO/AVC, 1916x812, 4283 kbps, 23,976 fps
Аудио #1: 48 kHz, AC3 Dolby Digital, 2/0 (L,R) ch, ~192.00 kbps avg [AVO]
Аудио #2: 48 kHz, AC3 Dolby Digital, 3/2 (L,C,R,l,r) + LFE ch, ~384.00 kbps avg [ENG]

Релиз -- killermax2013

Цитата:

Авторская дорожка Карповского взята из DVDRipa kro44i с тру,
WEB-DL 1080p от RARBG

Релиз ___killermax2013

General
Unique ID : 224743095626040033957688125149702391247 (0xA913F21DB9437854BE7F664C307A05CF)
Complete name : E:\INTERNET\The Honeymooners.2005.WEB-DL.1080p.[AVO](Karpovskiy)+Eng.Km.mkv
Format : Matroska
File size : 3.04 GiB
Duration : 1h 29mn
Overall bit rate : 4 955 Kbps
Movie name : The Honeymooners.2005.1080p.WEB-DL.DD5.1.[AVO]+[ENG]_killermax2013
Encoded date : UTC 2014-09-02 15:41:13
Writing application : mkvmerge v6.1.0 ('Old Devil') built on Mar 4 2013 09:10:42
Writing library : libebml v1.3.0 + libmatroska v1.4.0

Video
ID : 1
Format : AVC
Format/Info : Advanced Video Codec
Format profile : High@L4.0
Format settings, CABAC : Yes
Format settings, ReFrames : 5 frames
Codec ID : V_MPEG4/ISO/AVC
Duration : 1h 29mn
Bit rate : 4 283 Kbps
Width : 1 916 pixels
Height : 812 pixels
Display aspect ratio : 2.35:1
Frame rate : 23.976 fps
Color space : YUV
Chroma subsampling : 4:2:0
Bit depth : 8 bits
Scan type : Progressive
Bits/(Pixel*Frame) : 0.132
Stream size : 2.62 GiB (86%)
Title : The Honeymooners.2005.1080p.WEB-DL.DD5.1.[AVO]+[ENG]_killermax2013
Language : English
Color primaries : BT.709-5, BT.1361, IEC 61966-2-4, SMPTE RP177
Transfer characteristics : BT.709-5, BT.1361
Matrix coefficients : BT.709-5, BT.1361, IEC 61966-2-4 709, SMPTE RP177

Audio #1
ID : 2
Format : AC-3
Format/Info : Audio Coding 3
Mode extension : CM (complete main)
Codec ID : A_AC3
Duration : 1h 29mn
Bit rate mode : Constant
Bit rate : 192 Kbps
Channel(s) : 2 channels
Channel positions : Front: L R
Sampling rate : 48.0 KHz
Bit depth : 16 bits
Compression mode : Lossy
Delay relative to video : 1s 0ms
Stream size : 123 MiB (4%)
Title : AVO [Karpovskiy]
Language : Russian

Audio #2
ID : 3
Format : AC-3
Format/Info : Audio Coding 3
Mode extension : CM (complete main)
Codec ID : A_AC3
Duration : 1h 29mn
Bit rate mode : Constant
Bit rate : 384 Kbps
Channel(s) : 6 channels
Channel positions : Front: L C R, Side: L R, LFE
Sampling rate : 48.0 KHz
Bit depth : 16 bits
Compression mode : Lossy
Stream size : 246 MiB (8%)
Title : ENG
Language : English

Menu
00:00:00.000 : en:Out Of Service
00:05:34.000 : en:Six Years Later
00:09:32.000 : en:An Economic Opportunity
00:15:57.000 : en:Pool Hall Fight
00:19:46.000 : en:Practicing Decit
00:25:02.000 : en:Double Shifts
00:30:35.000 : en:Dancing For Dollars
00:34:48.000 : en:The Race Track
00:39:37.000 : en:Dinner With Mother
00:46:44.000 : en:Training
00:53:55.000 : en:Ralph's Mistake
00:59:51.000 : en:A Homeless Dumpster Dog
01:06:30.000 : en:To The Races
01:13:39.000 : en:City Beneath The City
01:20:24.000 : en:Apology Accepted
01:24:10.000 : en:Brass Bell
Отдача всего 120-140 кбит/сек :druncp: piratbit.pw



Скачать Квартирный вопрос через торрент http://i67.fastpic.ru/big/2014/0902/12/98ada30fabb72f387655dcf1f1d2e712.jpg Скачать фильм Квартирный вопрос через торрент бесплантно в хорошем качестве Описание: Водитель автобуса Ральф и ассенизатор Эд мечтают разбогатеть и перебраться с женами в престижный район. Для этого они готовы ... 10 10 2
Info! Золотая раздача, скачанное не засчитывается.
Торрент: Зарегистрирован [2014-09-02 16:25] · скачан: 23 раз
Статус: √ проверено
Размер: 3.04 GB
Как cкачать? Как скачать Квартирный вопрос через торрент | UTorrent

28-11-2019 20:33  

Отключить всю рекламу на сайте

02-09-2014 18:27 Квартирный вопрос Скачать торрент  

Еще одна нигерская комедия, снятая нигерами, специально для нигеров.piratbit.pw



02-09-2014 19:18 Квартирный вопрос Скачать торрент  

Severynin322 писал(а):

Еще одна нигерская комедия, снятая нигерами, специально для нигеров.

качать/смотреть никто не заставляет.
Смотрите "шедевры" комедий с Галустяном, там все в поряде sarcasticpiratbit.pw



    Дорогой пользователь! Огромная просьба, поблагодарите релизера, оцените раздачу и оставьте свои комментарий, если Вы скачали Квартирный вопрос через торрент бесплатно! Внесите свою лепту в развитие PiratBit!
    Комментировать посты могут только пользователи прошедшие не сложную регистрацию
    Показать сообщения:    

    Квартирный вопрос через торрент
    Скачать бесплатно Квартирный вопрос
    Квартирный вопрос скачать торрент
    Квартирный вопрос смотреть онлайн
    Cкачать фильм Квартирный вопрос бесплатно
    Квартирный вопрос скачать торрент в хорошем качестве
    Квартирный вопрос смотреть онлайн бесплатно в хорошем качестве


    Вы не можете начинать темы
    Вы не можете отвечать на сообщения
    Вы не можете редактировать свои сообщения
    Вы не можете удалять свои сообщения
    Вы не можете голосовать в опросах
    Вы не можете прикреплять файлы к сообщениям
    Вы можете скачивать файлы