1 сезон

3 сезон

iTunes

1

iTunes

DUB Netflix

iTunes

13

1 сезон

RePack

30

Deluxe

pack

Легкие деньги

ВАЖНО

ИГРА 18+

pack

RePack

MK11

RePack

jed

RePack

fifa19

RePack

RDR2

RePack

NEED FOR SPEED™ PAYBACK

4 сезон

9 сезон

Бесстыжие 9 сезон

Все сериалы

все сериалы на PB.wtf

RePack

FAR CRY 5

Anonymous, доброе утро, мы не успеваем до 1 числа собрать деньги на оплату серверов, помогите нам пожалуйста в это трудное время. В качестве благодарности мы отключим Вам всю рекламу на сайте (укажите свой ник в строку Ваше имя)!

×
  
Magnet ссылка

Бог не умер / God's Not Dead (Харольд Кронк) [2014, драма, HDRip, Любительский (одноголосый)[Андрей Фернатий] piratbit.pw

Бог не умер через торрент piratbit.pw

Размер: 1.37 GB | Добавлен: 6 лет 9 мес. назад | Торрент скачан:157 раз
Скачать  

02-09-2014 13:50 Бог не умер Скачать торрент  


Бог не умер / God's Not Dead

«'What do you believe?'»

Год выпуска:2014
Страна:США
Жанр:драма
Продолжительность: 01:52:45
Перевод:Любительский (одноголосый)[Андрей Фернатий]
Режиссер:Харольд Кронк
В ролях:

Уилли Робертсон (играет самого себя), Дэвид Э.Р. Уайт (Reverend Dave), Шэйн Харпер (Josh Wheaton), Кевин Сорбо (Professor Radisson), Korie Robertson (играет саму себя), Марко Хэнлиэн (Misrab), Алекс Аристидис (Fahid), Лиза Арнольд (June Wheaton / Professor Radisson's Mom), Ленор Бэнкс (Mina's Mother), Томми Блэйз (Tom Blanchart), Мезон Брайли (Concert Guest), Росс Бритс (Bored Junior)
  • Описание:
    Извечное столкновение религии и атеизма. На сей раз полем боя для защиты своих идеалов будет служить учебная аудитория, где профессор Рэдиссон сойдется в нешуточном сражении со своим учеником, верящим в Бога всей душой.


    Качество:HDRip
    Формат:AVI
    Видео кодек: XviD
    Аудио кодек:AC3
    Видео: XviD, 720x400 (16:9), 1597 kbps, 23,976 fps, 0,231 bpp
    Аудио: AC3 / 2.0 / 48 kHz / 128 kbps / 16 bit

    Код:

    General
    Complete name                            : D:\Торенты\Bog.ne.umer.2014.L1.HDRip.1400Mb.avi
    Format                                   : AVI
    Format/Info                              : Audio Video Interleave
    File size                                : 1.37 GiB
    Duration                                 : 1h 52mn
    Overall bit rate                         : 1 735 Kbps
    Writing application                      : VirtualDubMod 1.5.10.3 | www.virtualdub-fr.org || (build 2550/release)
    Writing library                          : VirtualDubMod build 2550/release

    Video
    ID                                       : 0
    Format                                   : MPEG-4 Visual
    Format profile                           : Advanced Simple@L5
    Format settings, BVOP                    : 1
    Format settings, QPel                    : No
    Format settings, GMC                     : No warppoints
    Format settings, Matrix                  : Custom
    Codec ID                                 : XVID
    Codec ID/Hint                            : XviD
    Duration                                 : 1h 52mn
    Bit rate                                 : 1 598 Kbps
    Width                                    : 720 pixels
    Height                                   : 400 pixels
    Display aspect ratio                     : 16:9
    Frame rate                               : 23.976 fps
    Color space                              : YUV
    Chroma subsampling                       : 4:2:0
    Bit depth                                : 8 bits
    Scan type                                : Progressive
    Compression mode                         : Lossy
    Bits/(Pixel*Frame)                       : 0.231
    Stream size                              : 1.26 GiB (92%)
    Writing library                          : XviD 1.2.1 (UTC 2008-12-04)

    Audio
    ID                                       : 1
    Format                                   : AC-3
    Format/Info                              : Audio Coding 3
    Mode extension                           : CM (complete main)
    Codec ID                                 : 2000
    Duration                                 : 1h 52mn
    Bit rate mode                            : Constant
    Bit rate                                 : 128 Kbps
    Channel(s)                               : 2 channels
    Channel positions                        : Front: L R
    Sampling rate                            : 48.0 KHz
    Bit depth                                : 16 bits
    Compression mode                         : Lossy
    Stream size                              : 103 MiB (7%)
    Alignment                                : Split accross interleaves
    Interleave, duration                     : 42 ms (1.00 video frame)
    Interleave, preload duration             : 500 ms


    Скриншоты:

    Срочно! Нужна помощь!

    © Оформление by Raven
    piratbit.pw



  • Скачать Бог не умер через торрент https://pic1.kartinco.top/images/61/ordi9.jpg Скачать фильм Бог не умер через торрент бесплантно в хорошем качестве Описание:Извечное столкновение религии и атеизма. На сей раз полем боя для защиты своих идеалов будет служить учебная аудитория, где ... 9 10 5
    Info! Золотая раздача, скачанное не засчитывается.
    Торрент: Зарегистрирован [2014-09-02 13:50] · скачан: 157 раз
    Статус: T временная
    Размер: 1.37 GB
    Как cкачать? Как скачать Бог не умер через торрент | UTorrent

    28-11-2019 20:33  

    Отключить всю рекламу на сайте


    02-09-2014 16:33 Бог не умер Скачать торрент  

    Как фильм?piratbit.pw



      Дорогой пользователь! Огромная просьба, поблагодарите релизера, оцените раздачу и оставьте свои комментарий, если Вы скачали Бог не умер через торрент бесплатно! Внесите свою лепту в развитие PiratBit!
      Комментировать посты могут только пользователи прошедшие не сложную регистрацию
      Показать сообщения:    

      Бог не умер через торрент
      Скачать бесплатно Бог не умер
      Бог не умер скачать торрент
      Бог не умер смотреть онлайн
      Cкачать фильм Бог не умер бесплатно
      Бог не умер скачать торрент в хорошем качестве
      Бог не умер смотреть онлайн бесплатно в хорошем качестве


      Вы не можете начинать темы
      Вы не можете отвечать на сообщения
      Вы не можете редактировать свои сообщения
      Вы не можете удалять свои сообщения
      Вы не можете голосовать в опросах
      Вы не можете прикреплять файлы к сообщениям
      Вы можете скачивать файлы