1 сезон

3 сезон

iTunes

1

iTunes

DUB Netflix

iTunes

13

1 сезон

RePack

30

Deluxe

pack

Легкие деньги

ВАЖНО

ИГРА 18+

pack

RePack

MK11

RePack

jed

RePack

fifa19

RePack

RDR2

RePack

NEED FOR SPEED™ PAYBACK

4 сезон

9 сезон

Бесстыжие 9 сезон

Все сериалы

все сериалы на PB.wtf

RePack

FAR CRY 5

Anonymous, доброе утро, мы не успеваем до 1 числа собрать деньги на оплату серверов, помогите нам пожалуйста в это трудное время. В качестве благодарности мы отключим Вам всю рекламу на сайте (укажите свой ник в строку Ваше имя)!

×
  
Magnet ссылка

10 000 часов / 10 000 timmar (Joachim Hedén) [2014, комедия, HDRip, Любительский (одноголосый)[Andi] piratbit.pw

10 000 часов через торрент piratbit.pw

Размер: 1.37 GB | Добавлен: 6 лет 9 мес. назад | Торрент скачан:126 раз
Скачать  

31-08-2014 18:00 10 000 часов Скачать торрент  


10000 часов / 10 000 timmar


Год выпуска:2014
Страна:Швеция
Жанр:комедия
Продолжительность: 01:32:45
Перевод:Любительский (одноголосый)[Andi]
Режиссер:Joachim Hedén
В ролях:
Питер Магнуссон (Eric), Карин Литман (Emma), Özz Nûjen (Bengtsson), Матильда фон Эссен (Tora), Jessica Aleryd (Nyhetsankare), Джонни Бломквист (Pumpmannen), Кристиан Брэндон (Fotbollsspelare), Дэвид Карлссон (Bandmedlem), Signe Dahlkvist (Grannbarn), Nils Dernevik (Servitör), Стэн Эричи (Scentekniker), Сив Эриксон (Tungviktaren)
  • Описание:
    Эрику Ханссону выпадает невероятная удача — он выигрывает в лотерее 25 тысяч шведских крон, но вместо того, чтобы погасить кредит, как желает жена, он решает посвятить жизнь футболу. Книга «10 000 часов» убеждает его, что, если приложить максимум усилий и потратить 10 тысяч часов, то можно добиться чего угодно. Правда это или нет, Эрику предстоит узнать...


    Качество:HDRip
    Формат:AVI
    Видео кодек: XviD
    Аудио кодек:AC3
    Видео: XviD, 720x304 (2.35:1), 1651 kbps, 24 fps, 0,314 bpp
    Аудио: AC3 / 5.1 / 48 kHz / 448 kbps / 16 bit

    Код:

    General
    Complete name                            : D:\Торенты\10000.Chasov.2014.L1.HDRip.1400Mb.avi
    Format                                   : AVI
    Format/Info                              : Audio Video Interleave
    File size                                : 1.37 GiB
    Duration                                 : 1h 32mn
    Overall bit rate                         : 2 109 Kbps
    Writing application                      : VirtualDubMod 1.5.10.3 | www.virtualdub-fr.org || (build 2550/release)
    Writing library                          : VirtualDubMod build 2550/release

    Video
    ID                                       : 0
    Format                                   : MPEG-4 Visual
    Format profile                           : Advanced Simple@L5
    Format settings, BVOP                    : 2
    Format settings, QPel                    : No
    Format settings, GMC                     : No warppoints
    Format settings, Matrix                  : Default (MPEG)
    Codec ID                                 : XVID
    Codec ID/Hint                            : XviD
    Duration                                 : 1h 32mn
    Bit rate                                 : 1 652 Kbps
    Width                                    : 720 pixels
    Height                                   : 304 pixels
    Display aspect ratio                     : 2.35:1
    Frame rate                               : 24.000 fps
    Color space                              : YUV
    Chroma subsampling                       : 4:2:0
    Bit depth                                : 8 bits
    Scan type                                : Progressive
    Compression mode                         : Lossy
    Bits/(Pixel*Frame)                       : 0.314
    Stream size                              : 1.07 GiB (78%)
    Writing library                          : XviD 1.2.1 (UTC 2008-12-04)

    Audio
    ID                                       : 1
    Format                                   : AC-3
    Format/Info                              : Audio Coding 3
    Mode extension                           : CM (complete main)
    Codec ID                                 : 2000
    Duration                                 : 1h 32mn
    Bit rate mode                            : Constant
    Bit rate                                 : 448 Kbps
    Channel(s)                               : 6 channels
    Channel positions                        : Front: L C R, Side: L R, LFE
    Sampling rate                            : 48.0 KHz
    Bit depth                                : 16 bits
    Compression mode                         : Lossy
    Stream size                              : 297 MiB (21%)
    Alignment                                : Split accross interleaves
    Interleave, duration                     : 42 ms (1.00 video frame)
    Interleave, preload duration             : 500 ms


    Скриншоты:

    Срочно! Нужна помощь!

    © Оформление by Raven
    piratbit.pw



  • Скачать 10 000 часов через торрент https://pic1.kartinco.top/images/61/ordi9.jpg Скачать фильм 10 000 часов через торрент бесплантно в хорошем качестве Описание:Эрику Ханссону выпадает невероятная удача — он выигрывает в лотерее 25 тысяч шведских крон, но вместо того, чтобы погасить кредит, ... 10 10 5
    Торрент: Зарегистрирован [2014-08-31 18:00] · скачан: 126 раз
    Статус: T временная
    Размер: 1.37 GB
    Как cкачать? Как скачать 10 000 часов через торрент | UTorrent

    28-11-2019 20:33  

    Отключить всю рекламу на сайте


      Дорогой пользователь! Огромная просьба, поблагодарите релизера, оцените раздачу и оставьте свои комментарий, если Вы скачали 10 000 часов через торрент бесплатно! Внесите свою лепту в развитие PiratBit!
      Комментировать посты могут только пользователи прошедшие не сложную регистрацию
      Показать сообщения:    

      10 000 часов через торрент
      Скачать бесплатно 10 000 часов
      10 000 часов скачать торрент
      10 000 часов смотреть онлайн
      Cкачать фильм 10 000 часов бесплатно
      10 000 часов скачать торрент в хорошем качестве
      10 000 часов смотреть онлайн бесплатно в хорошем качестве


      Вы не можете начинать темы
      Вы не можете отвечать на сообщения
      Вы не можете редактировать свои сообщения
      Вы не можете удалять свои сообщения
      Вы не можете голосовать в опросах
      Вы не можете прикреплять файлы к сообщениям
      Вы можете скачивать файлы