1 сезон

3 сезон

iTunes

1

iTunes

DUB Netflix

iTunes

13

1 сезон

RePack

30

Deluxe

pack

Легкие деньги

ВАЖНО

ИГРА 18+

pack

RePack

MK11

RePack

jed

RePack

fifa19

RePack

RDR2

RePack

NEED FOR SPEED™ PAYBACK

4 сезон

9 сезон

Бесстыжие 9 сезон

Все сериалы

все сериалы на PB.wtf

RePack

FAR CRY 5

Anonymous, доброй ночи, мы не успеваем до 1 числа собрать деньги на оплату серверов, помогите нам пожалуйста в это трудное время. В качестве благодарности мы отключим Вам всю рекламу на сайте (укажите свой ник в строку Ваше имя)!

×
  
Magnet ссылка

Честь / Honour (Шах Кхан / Shan Khan) [2014, Великобритания, триллер, WEB-DLRip, Любительский (одноголосый)[datynet] piratbit.pw

Честь через торрент piratbit.pw

Размер: 1.46 GB | Добавлен: 6 лет 9 мес. назад | Торрент скачан:124 раза
Скачать  

31-08-2014 01:36 Честь Скачать торрент  

Честь / Honour
«Семья британца азиатского происхождения замышляет нанять Охотника за головами, чтобы выследить и убить их беглую дочь»


  • Год выпуска: 2014
  • Страна: Великобритания
  • Жанр: триллер
  • Продолжительность: 01:44:24
  • Перевод: Любительский (одноголосый)[datynet]

  • Режиссер: Шах Кхан / Shan Khan
  • В ролях:

    Аийша Харт (Mona), Пэдди Консидайн, Фараз Аюб (Kasim), Шубхам Сараф (Adel), Харви Вирди (Mother), Никеш Пател (Tanvir), Бен Бишоп (Boxer), Paulina Boneva (Train passenger), Ник Чоппинг (White Copper), Саймон Коулмэн (Policeman), Amiera Darwish (Farsi Woman), Caitlin Joseph (Jameelah)

  • Описание:
    События фильма развиваются вокруг девушки, которая стала объектом мести со стороны ее семьи за порочащую их честь связь с панджабцем, и охотника за головами, взявшегося за деньги выполнить грязную работу.
  • Рейтинг:



  • Качество: WEB-DLRip
  • Формат: :AVI
  • Видео кодек: XviD
  • Аудио кодек: MP3
  • Видео: 720x304 (2.35:1), 1795 kbps, 24 fps, 0,342 bpp
  • Аудио: 2.0 / 48 kHz / 192 kbps
  • Релиз от: GEKADOL
    Не нашли то, что искали? Для вас "Стол заказов" "Жмём сюда!"

    Код:

    General
    Complete name                            : I:\Honour.2014.L1.WEBDLRip.1.46GB.avi
    Format                                   : AVI
    Format/Info                              : Audio Video Interleave
    File size                                : 1.46 GiB
    Duration                                 : 1h 44mn
    Overall bit rate                         : 1 997 Kbps
    Writing application                      : VirtualDubMod 1.5.10.3 | www.virtualdub-fr.org || (build 2550/release)
    Writing library                          : VirtualDubMod build 2550/release

    Video
    ID                                       : 0
    Format                                   : MPEG-4 Visual
    Format profile                           : Advanced Simple@L5
    Format settings, BVOP                    : 1
    Format settings, QPel                    : No
    Format settings, GMC                     : No warppoints
    Format settings, Matrix                  : Custom
    Codec ID                                 : XVID
    Codec ID/Hint                            : XviD
    Duration                                 : 1h 44mn
    Bit rate                                 : 1 796 Kbps
    Width                                    : 720 pixels
    Height                                   : 304 pixels
    Display aspect ratio                     : 2.35:1
    Frame rate                               : 24.000 fps
    Color space                              : YUV
    Chroma subsampling                       : 4:2:0
    Bit depth                                : 8 bits
    Scan type                                : Progressive
    Compression mode                         : Lossy
    Bits/(Pixel*Frame)                       : 0.342
    Stream size                              : 1.31 GiB (90%)
    Writing library                          : XviD 1.2.1 (UTC 2008-12-04)

    Audio
    ID                                       : 1
    Format                                   : MPEG Audio
    Format version                           : Version 1
    Format profile                           : Layer 3
    Mode                                     : Joint stereo
    Codec ID                                 : 55
    Codec ID/Hint                            : MP3
    Duration                                 : 1h 44mn
    Bit rate mode                            : Constant
    Bit rate                                 : 192 Kbps
    Channel(s)                               : 2 channels
    Sampling rate                            : 48.0 KHz
    Compression mode                         : Lossy
    Stream size                              : 143 MiB (10%)
    Alignment                                : Aligned on interleaves
    Interleave, duration                     : 42 ms (1.00 video frame)
    Interleave, preload duration             : 504 ms


    Скриншоты:


    piratbit.pw



  • Скачать Честь через торрент http://i66.fastpic.ru/big/2014/0831/dc/4583b89f19399c512ce1f6b99ed880dc.jpg Скачать фильм Честь через торрент бесплантно в хорошем качестве Описание: События фильма развиваются вокруг девушки, которая стала объектом мести со стороны ее семьи за порочащую их честь связь с ... 10 10 3
    Торрент: Зарегистрирован [2014-08-31 01:36] · скачан: 124 раз
    Статус: T временная
    Размер: 1.46 GB
    Как cкачать? Как скачать Честь через торрент | UTorrent

    % Раздел Тема Автор DL S | L
    Зарубежные сериалы [ 13.98 GB ] Ваша честь / Your Honor / Сезон: 1 / Серии: 1-10 из 10 [2020 WEB-DL 720p] [MVO] killermax2013 Скачать
    1 | 0
    Зарубежные сериалы [ 24.42 GB ] Ваша честь / Your Honor / Сезон: 1 / Серии: 1-10 из 10 [2020 WEB-DL 1080p] MVO [HDRezka Studio] bober100 Скачать
    2 | 0
    Зарубежные сериалы [ 24.05 GB ] Ваша честь / Your Honor / Сезон: 1 / Серии: 1-10 из 10 [2020 WEB-DL 1080p] MVO [Novamedia / Amedia] bober100 Скачать
    1 | 0
    Зарубежные сериалы [ 9.09 GB ] Ваша честь / Your Honor / Сезон: 1 / Серии 1-10 из 10 [2020 WEB-DLRip-AVC] MVO [LostFilm] GEKADOL Скачать
    2 | 0
    Зарубежные сериалы [ 7.28 GB ] Ваша честь / Your Honor / Сезон: 1 / Серии: 1-10 из 10 [2020 WEB-DLRip] MVO [Novamedia / Amedia] bober100 Скачать
    1 | 0
    Зарубежные сериалы [ 12.22 GB ] Ваша честь / Your Honor / Сезон: 1 / Серии: 1-10 из 10 [2020 WEB-DL 720р] MVO [LostFilm] bober100 Скачать
    2 | 0
    Зарубежные сериалы [ 7.46 GB ] Ваша честь / Your Honor / Сезон: 1 / Серии: 1-10 из 10 [2020 WEB-DLRip] MVO [LostFilm] bober100 Скачать
    1 | 0

    28-11-2019 20:33  

    Отключить всю рекламу на сайте

      Дорогой пользователь! Огромная просьба, поблагодарите релизера, оцените раздачу и оставьте свои комментарий, если Вы скачали Честь через торрент бесплатно! Внесите свою лепту в развитие PiratBit!
      Комментировать посты могут только пользователи прошедшие не сложную регистрацию
      Показать сообщения:    

      Честь через торрент
      Скачать бесплатно Честь
      Честь скачать торрент
      Честь смотреть онлайн
      Cкачать фильм Честь бесплатно
      Честь скачать торрент в хорошем качестве
      Честь смотреть онлайн бесплатно в хорошем качестве


      Вы не можете начинать темы
      Вы не можете отвечать на сообщения
      Вы не можете редактировать свои сообщения
      Вы не можете удалять свои сообщения
      Вы не можете голосовать в опросах
      Вы не можете прикреплять файлы к сообщениям
      Вы можете скачивать файлы