1 сезон

3 сезон

iTunes

1

iTunes

DUB Netflix

iTunes

13

1 сезон

RePack

30

Deluxe

pack

Легкие деньги

ВАЖНО

ИГРА 18+

pack

RePack

MK11

RePack

jed

RePack

fifa19

RePack

RDR2

RePack

NEED FOR SPEED™ PAYBACK

4 сезон

9 сезон

Бесстыжие 9 сезон

Все сериалы

все сериалы на PB.wtf

RePack

FAR CRY 5

Anonymous, доброй ночи, мы не успеваем до 1 числа собрать деньги на оплату серверов, помогите нам пожалуйста в это трудное время. В качестве благодарности мы отключим Вам всю рекламу на сайте (укажите свой ник в строку Ваше имя)!

×
  
Magnet ссылка

Береги меня / Kendime Iyi Bak (Ruhi Yapici) [2014, Драма, мелодрама, HDTVRip, Любительский (двухголосый) TVnovella piratbit.pw

Береги меня через торрент piratbit.pw

Размер: 1.34 GB | Добавлен: 6 лет 9 мес. назад | Торрент скачан:47 раз
Скачать  

29-08-2014 19:37 Береги меня Скачать торрент  

Береги меня / Kendime Iyi Bak


Год выпуска: 2014
Страна: Турция
Жанр: Драма,мелодрама
Продолжительность:01:26:56
Перевод:Любительский (двухголосый) TVnovella
Режиссер:Ruhi Yapici

  • В ролях:

    Филиз Ахмет, Begüm Birgören, Аслы Тандоан, Онур Озтюрк

  • Описание:
    Эмре и Йешим – влюбленная пара. Они счастливы и решают пожениться. Приготовления к торжеству идут полным ходом, но когда до свадьбы остается всего лишь неделя, Эмре решает пригласить на вечеринку всех своих университетских друзей. Во время встречи он узнает, что его бывшая возлюбленная умерла. Решив узнать, как и почему это случилось, Эмре начинает свое расследование, забыв обо всем, в том числе и о предстоящей свадьбе. И вот, за два дня до свадьбы, Эмре получает все ответы на свои вопросы…

  • Мировая премьера:11 апреля 2014


    Качество: HDTVRip
    Формат:AVI
    Видео кодек: XviD
    Аудио кодек:AC3
    Видео: XviD, 720x352 (2.045), 1815 kbps, 25 fps, 0,287 bpp
    Аудио №1: AC3 / 2.0 / 48 kHz / 192 kbps / 16 bit/ RUS
    Аудио №2: AC3 / 2.0 / 48 kHz / 192 kbps / 16 bit/ ENG


    Код:

    General
    Complete name                            : D:\Торенты\Beregi.menya.2014.russ.turk.HDTVRip.avi
    Format                                   : AVI
    Format/Info                              : Audio Video Interleave
    File size                                : 1.34 GiB
    Duration                                 : 1h 26mn
    Overall bit rate                         : 2 214 Kbps

    Video
    ID                                       : 0
    Format                                   : MPEG-4 Visual
    Format profile                           : Advanced Simple@L5
    Format settings, BVOP                    : 2
    Format settings, QPel                    : No
    Format settings, GMC                     : No warppoints
    Format settings, Matrix                  : Default (H.263)
    Codec ID                                 : XVID
    Codec ID/Hint                            : XviD
    Duration                                 : 1h 26mn
    Bit rate                                 : 1 815 Kbps
    Width                                    : 720 pixels
    Height                                   : 352 pixels
    Display aspect ratio                     : 2.045
    Frame rate                               : 25.000 fps
    Color space                              : YUV
    Chroma subsampling                       : 4:2:0
    Bit depth                                : 8 bits
    Scan type                                : Progressive
    Compression mode                         : Lossy
    Bits/(Pixel*Frame)                       : 0.287
    Stream size                              : 1.10 GiB (82%)
    Writing library                          : XviD 64

    Audio #1
    ID                                       : 1
    Format                                   : AC-3
    Format/Info                              : Audio Coding 3
    Mode extension                           : CM (complete main)
    Codec ID                                 : 2000
    Duration                                 : 1h 26mn
    Bit rate mode                            : Constant
    Bit rate                                 : 192 Kbps
    Channel(s)                               : 2 channels
    Channel positions                        : Front: L R
    Sampling rate                            : 48.0 KHz
    Bit depth                                : 16 bits
    Compression mode                         : Lossy
    Stream size                              : 119 MiB (9%)
    Alignment                                : Split accross interleaves
    Interleave, duration                     : 40 ms (1.00 video frame)
    Interleave, preload duration             : 500 ms

    Audio #2
    ID                                       : 2
    Format                                   : AC-3
    Format/Info                              : Audio Coding 3
    Mode extension                           : CM (complete main)
    Codec ID                                 : 2000
    Duration                                 : 1h 26mn
    Bit rate mode                            : Constant
    Bit rate                                 : 192 Kbps
    Channel(s)                               : 2 channels
    Channel positions                        : Front: L R
    Sampling rate                            : 48.0 KHz
    Bit depth                                : 16 bits
    Compression mode                         : Lossy
    Stream size                              : 119 MiB (9%)
    Alignment                                : Split accross interleaves
    Interleave, duration                     : 40 ms (1.00 video frame)
    Interleave, preload duration             : 500 ms

    Скриншоты:

    Каталог Новинок (Фильмы-трейлеры, Игры, Сериалы, Мультфильмы)

    © Оформление by Raven
    piratbit.pw



  • Скачать Береги меня через торрент https://pic1.kartinco.top/images/61/stazu.jpg Скачать фильм Береги меня через торрент бесплантно в хорошем качестве Описание:Эмре и Йешим – влюбленная пара. Они счастливы и решают пожениться. Приготовления к торжеству идут полным ходом, но когда до ... 9.3 10 3
    Торрент: Зарегистрирован [2014-08-29 19:38] · скачан: 47 раз
    Статус: √ проверено
    Размер: 1.34 GB
    Как cкачать? Как скачать Береги меня через торрент | UTorrent

    28-11-2019 20:33  

    Отключить всю рекламу на сайте


      Дорогой пользователь! Огромная просьба, поблагодарите релизера, оцените раздачу и оставьте свои комментарий, если Вы скачали Береги меня через торрент бесплатно! Внесите свою лепту в развитие PiratBit!
      Комментировать посты могут только пользователи прошедшие не сложную регистрацию
      Показать сообщения:    

      Береги меня через торрент
      Скачать бесплатно Береги меня
      Береги меня скачать торрент
      Береги меня смотреть онлайн
      Cкачать фильм Береги меня бесплатно
      Береги меня скачать торрент в хорошем качестве
      Береги меня смотреть онлайн бесплатно в хорошем качестве


      Вы не можете начинать темы
      Вы не можете отвечать на сообщения
      Вы не можете редактировать свои сообщения
      Вы не можете удалять свои сообщения
      Вы не можете голосовать в опросах
      Вы не можете прикреплять файлы к сообщениям
      Вы можете скачивать файлы