1 сезон

3 сезон

iTunes

1

iTunes

DUB Netflix

iTunes

13

1 сезон

RePack

30

Deluxe

pack

Легкие деньги

ВАЖНО

ИГРА 18+

pack

RePack

MK11

RePack

jed

RePack

fifa19

RePack

RDR2

RePack

NEED FOR SPEED™ PAYBACK

4 сезон

9 сезон

Бесстыжие 9 сезон

Все сериалы

все сериалы на PB.wtf

RePack

FAR CRY 5

Anonymous, доброе утро, мы не успеваем до 1 числа собрать деньги на оплату серверов, помогите нам пожалуйста в это трудное время. В качестве благодарности мы отключим Вам всю рекламу на сайте (укажите свой ник в строку Ваше имя)!

×
  
Magnet ссылка

Хочу. Не могу / Premature (Дэн Бирс) [2014, комедия, WEB-DLRip, Любительский (двухголосый)[3А Студия] piratbit.pw

Хочу. Не могу через торрент piratbit.pw

Размер: 1.46 GB | Добавлен: 6 лет 9 мес. назад | Торрент скачан:699 раз
Скачать  

29-08-2014 19:30 Хочу. Не могу Скачать торрент  

Хочу. Не могу / Premature
«Coming WAY Too Soon»

Год выпуска: 2014
Страна: США
Жанр:комедия
Продолжительность:01:33:44
Перевод:Любительский (двухголосый)[3А Студия]
Режиссер:Дэн Бирс

  • В ролях:

    Алан Тьюдик, Кэти Финдлей, Крэйг Робертс (Stanley), Карлсон Янг (Angela Yearwood), Брайан Хаски (Principal Hansen), Отем Диал (Female Student), Джон Карна (Rob Crabbe), Зои Майерс (Lisa), Париза Джонстон (Arthur's Mom), Элон Голд (Mr. Hughes), Стив Култер (Jim Crabbe), Кэти Нилэнд (Anne Crabbe)

  • Описание:
    Для выпускника старших классов наступает самый главный день в его жизни, как в личном плане, так и в учебе. Но все обламывается, так и не дойдя до финала. Просыпаясь на следующее утро, он понимает, что попал в «День Сурка». И теперь ему предстоит раз за разом переживать все события этого самого главного дня, пока все не пройдет идеально. Но удастся ли ему выбраться из временной петли и сделать свои подростковые фантазии реальностью?

  • Мировая премьера:7 марта 2014


    Качество: WEB-DLRip
    Формат:AVI
    Видео кодек: XviD
    Аудио кодек:AC3
    Видео: XviD, 720x304 (2.35:1), 1829 kbps, 23,976 fps, 0,349 bpp
    Аудио №1: AC3 / 2.0 / 48 kHz / 192 kbps / 16 bit-Russian
    Аудио №2: AC3 / 2.0 / 48 kHz / 192 kbps / 16 bit-English


    Код:

    General
    Complete name                            : D:\Торенты\Premature.2014.L2.WEB-DLRip.1.46Gb.avi
    Format                                   : AVI
    Format/Info                              : Audio Video Interleave
    File size                                : 1.46 GiB
    Duration                                 : 1h 33mn
    Overall bit rate                         : 2 228 Kbps
    Writing application                      : VirtualDubMod 1.5.10.3 | www.virtualdub-fr.org || (build 2550/release)
    Writing library                          : VirtualDubMod build 2550/release

    Video
    ID                                       : 0
    Format                                   : MPEG-4 Visual
    Format profile                           : Advanced Simple@L5
    Format settings, BVOP                    : 1
    Format settings, QPel                    : No
    Format settings, GMC                     : No warppoints
    Format settings, Matrix                  : Custom
    Codec ID                                 : XVID
    Codec ID/Hint                            : XviD
    Duration                                 : 1h 33mn
    Bit rate                                 : 1 829 Kbps
    Width                                    : 720 pixels
    Height                                   : 304 pixels
    Display aspect ratio                     : 2.35:1
    Frame rate                               : 23.976 fps
    Color space                              : YUV
    Chroma subsampling                       : 4:2:0
    Bit depth                                : 8 bits
    Scan type                                : Progressive
    Compression mode                         : Lossy
    Bits/(Pixel*Frame)                       : 0.349
    Stream size                              : 1.20 GiB (82%)
    Writing library                          : XviD 73

    Audio #1
    ID                                       : 1
    Format                                   : AC-3
    Format/Info                              : Audio Coding 3
    Mode extension                           : CM (complete main)
    Codec ID                                 : 2000
    Duration                                 : 1h 33mn
    Bit rate mode                            : Constant
    Bit rate                                 : 192 Kbps
    Channel(s)                               : 2 channels
    Channel positions                        : Front: L R
    Sampling rate                            : 48.0 KHz
    Bit depth                                : 16 bits
    Compression mode                         : Lossy
    Delay relative to video                  : 72ms
    Stream size                              : 129 MiB (9%)
    Alignment                                : Split accross interleaves
    Interleave, duration                     : 42 ms (1.00 video frame)
    Interleave, preload duration             : 500 ms

    Audio #2
    ID                                       : 2
    Format                                   : AC-3
    Format/Info                              : Audio Coding 3
    Mode extension                           : CM (complete main)
    Codec ID                                 : 2000
    Duration                                 : 1h 33mn
    Bit rate mode                            : Constant
    Bit rate                                 : 192 Kbps
    Channel(s)                               : 2 channels
    Channel positions                        : Front: L R
    Sampling rate                            : 48.0 KHz
    Bit depth                                : 16 bits
    Compression mode                         : Lossy
    Stream size                              : 129 MiB (9%)
    Alignment                                : Split accross interleaves
    Interleave, duration                     : 42 ms (1.00 video frame)
    Interleave, preload duration             : 500 ms

    Скриншоты:

    Каталог Новинок (Фильмы-трейлеры, Игры, Сериалы, Мультфильмы)

    © Оформление by Raven
    piratbit.pw



  • Скачать Хочу. Не могу через торрент https://pic1.kartinco.top/images/61/stazu.jpg Скачать фильм Хочу. Не могу через торрент бесплантно в хорошем качестве Описание:Для выпускника старших классов наступает самый главный день в его жизни, как в личном плане, так и в учебе. Но все обламывается, ... 10 10 9
    Торрент: Зарегистрирован [2014-08-29 19:30] · скачан: 699 раз
    Статус: T временная
    Размер: 1.46 GB
    Как cкачать? Как скачать Хочу. Не могу через торрент | UTorrent

    28-11-2019 20:33  

    Отключить всю рекламу на сайте

    29-08-2014 19:31 Хочу. Не могу Скачать торрент  

    Слив..сегодня только добавил трейлер http://pb.wtf/topic/122936/ Октябрь: sarcasticpiratbit.pw



    09-12-2014 13:08 Хочу. Не могу Скачать торрент  

    фильм - ХРЕНЬpiratbit.pw



      Дорогой пользователь! Огромная просьба, поблагодарите релизера, оцените раздачу и оставьте свои комментарий, если Вы скачали Хочу. Не могу через торрент бесплатно! Внесите свою лепту в развитие PiratBit!
      Комментировать посты могут только пользователи прошедшие не сложную регистрацию
      Показать сообщения:    

      Хочу. Не могу через торрент
      Скачать бесплатно Хочу. Не могу
      Хочу. Не могу скачать торрент
      Хочу. Не могу смотреть онлайн
      Cкачать фильм Хочу. Не могу бесплатно
      Хочу. Не могу скачать торрент в хорошем качестве
      Хочу. Не могу смотреть онлайн бесплатно в хорошем качестве


      Вы не можете начинать темы
      Вы не можете отвечать на сообщения
      Вы не можете редактировать свои сообщения
      Вы не можете удалять свои сообщения
      Вы не можете голосовать в опросах
      Вы не можете прикреплять файлы к сообщениям
      Вы можете скачивать файлы