Ссылка на приватное зеркало нашего сайта всего за 1$. Внимание количество ограничено!!!

2 сезон

iTunes

1 сезон

1

iTunes

iTunes

iTunes

1 сезон

RePack

30

ИГРА 18+

pack

ВАЖНО

!!Акция!!

Alien_RageХит недели

RePack

MK11
pack

Забери бонус

RePack

jed

!!Акция!!

Alien_Rage

RePack

fifa19

RePack

Assassins Creed: Odyssey

RePack

NEED FOR SPEED™ PAYBACK

4 сезон

9 сезон

Бесстыжие 9 сезон

Все сериалы

все сериалы на PB.wtf

RePack

FAR CRY 5
  

Подарок с характером (Карен Оганесян) [2014, Россия, семейный, приключения, комедия, HDRip] piratbit.pw

Подарок с характером через торрент piratbit.pw

Размер: 1.37 GB | Добавлен: 6 лет 2 мес. назад | Торрент скачан:1595 раз
Скачать  

08-08-2014 21:59 Подарок с характером Скачать торрент  


Подарок с характером


Год выпуска:2014
Страна:Россия
Жанр:семейный, приключения, комедия
Продолжительность: 01:28:13
Перевод:Не требуется
Субтитры: Нет
Режиссер:Карен Оганесян
В ролях:

Михаил Галустян (Михаил Орешкин), Артем Фадеев, Фёдор Бондарчук, Екатерина Климова, Николай Валуев, Ирина Безрукова, Катерина Шпица, Алексей Макаров, Константин Юшкевич, Инга Стрелкова-Оболдина, Галина Петрова, Наталья Костенева
  • Описание:
    Быть пандой весело! Но не Мише, который вынужден работать в костюме панды на детских праздниках. Ему тридцать лет, он живет в крохотной однушке на окраине Москвы, и у него нет серьезной работы. Все было так, пока его не позвали на день рождения к сыну олигарха. Артему девять лет, и у него есть тайный план, помочь осуществить который может только Миша. Мальчик и панда отправляются в путешествие через всю страну, то и дело вляпываясь в невероятные ситуации.


    Качество:HDRip
    Формат:AVI
    Видео кодек: XviD
    Аудио кодек:AC3
    Видео: 720x384 (1.875), 1762 kbps, 24 fps
    Аудио: 5.1/ 48 kHz/ 448 kbps/ AC3

    Код:

    General
    Complete name                            : D:\Торенты\P0dar0k.2014.O.HDRip.1400MB.avi
    Format                                   : AVI
    Format/Info                              : Audio Video Interleave
    File size                                : 1.37 GiB
    Duration                                 : 1h 28mn
    Overall bit rate                         : 2 220 Kbps
    Writing application                      : VirtualDubMod 1.5.10.2 (build 2540/release)
    Writing library                          : VirtualDubMod build 2540/release

    Video
    ID                                       : 0
    Format                                   : MPEG-4 Visual
    Format profile                           : Advanced Simple@L5
    Format settings, BVOP                    : 2
    Format settings, QPel                    : No
    Format settings, GMC                     : No warppoints
    Format settings, Matrix                  : Default (MPEG)
    Codec ID                                 : XVID
    Codec ID/Hint                            : XviD
    Duration                                 : 1h 28mn
    Bit rate                                 : 1 762 Kbps
    Width                                    : 720 pixels
    Height                                   : 384 pixels
    Display aspect ratio                     : 1.875
    Frame rate                               : 24.000 fps
    Color space                              : YUV
    Chroma subsampling                       : 4:2:0
    Bit depth                                : 8 bits
    Scan type                                : Progressive
    Compression mode                         : Lossy
    Bits/(Pixel*Frame)                       : 0.266
    Stream size                              : 1.09 GiB (79%)
    Writing library                          : XviD 1.2.1 (UTC 2008-12-04)

    Audio
    ID                                       : 1
    Format                                   : AC-3
    Format/Info                              : Audio Coding 3
    Mode extension                           : CM (complete main)
    Codec ID                                 : 2000
    Duration                                 : 1h 28mn
    Bit rate mode                            : Constant
    Bit rate                                 : 448 Kbps
    Channel(s)                               : 6 channels
    Channel positions                        : Front: L C R, Side: L R, LFE
    Sampling rate                            : 48.0 KHz
    Bit depth                                : 16 bits
    Compression mode                         : Lossy
    Stream size                              : 283 MiB (20%)
    Alignment                                : Split accross interleaves
    Interleave, duration                     : 42 ms (1.00 video frame)
    Interleave, preload duration             : 500 ms


    Скриншоты:

    Каталог Новинок (Фильмы-трейлеры, Игры, Сериалы, Мультфильмы)

    © Оформление by Raven
    piratbit.pw



  • Скачать Подарок с характером через торрент http://pic.kartinco.top/images/6/ordi9.jpg Скачать фильм Подарок с характером через торрент бесплантно в хорошем качестве Описание:Быть пандой весело! Но не Мише, который вынужден работать в костюме панды на детских праздниках. Ему тридцать лет, он живет в ... 9.1 10 25
    Торрент: Зарегистрирован [2014-08-08 21:59] · скачан: 1 595 раз
    Статус: √ проверено
    Размер: 1.37 GB
    Как cкачать? Как скачать Подарок с характером через торрент | qTorrent

    % Раздел Тема Автор DL S | L
    Наши фильмы (HD, WEB-DL 720p, 1080p) [ 2.53 GB ] Подарок с характером [2014 BDRip 720p] [] bober100 Скачать
    1 | 0
    Наши фильмы (HD, WEB-DL 720p, 1080p) [ 6.56 GB ] Подарок с характером [2014 BDRip 1080p Оригинал ] от R.G. HD-Films DEVI Скачать
    1 | 0
    Наши фильмы (DVD фильмы) [ 4.67 GB ] Подарок с характером [2014 DVD9] R5 voovaz Скачать
    1 | 0
    Наши фильмы (Blu-ray, BD-Remux, HDDVD) [ 19.7 GB ] Подарок с характером [2014 Blu-ray Оригинал] Бумер Скачать
    1 | 0
    Наши новые фильмы 2014 [ 1.46 GB ] Подарок с характером [2014 HDRip-AVC] [] От R.G. PiratFilms White Smoke Скачать
    1 | 0
    Наши новые фильмы 2014 [ 1.37 GB ] Подарок с характером [2014 Россия SATRip] Ворон Скачать
    1 | 0

    28-11-2019 20:33  

    Отключить всю рекламу на сайте

      Дорогой пользователь! Огромная просьба, поблагодарите релизера, оцените раздачу и оставьте свои комментарий, если Вы скачали Подарок с характером через торрент бесплатно! Внесите свою лепту в развитие PiratBit!
      Комментировать посты могут только пользователи прошедшие не сложную регистрацию
      Показать сообщения:    

      Подарок с характером через торрент
      Скачать бесплатно Подарок с характером
      Подарок с характером скачать торрент
      Подарок с характером смотреть онлайн
      Cкачать фильм Подарок с характером бесплатно
      Подарок с характером скачать торрент в хорошем качестве
      Подарок с характером смотреть онлайн бесплатно в хорошем качестве


      Вы не можете начинать темы
      Вы не можете отвечать на сообщения
      Вы не можете редактировать свои сообщения
      Вы не можете удалять свои сообщения
      Вы не можете голосовать в опросах
      Вы не можете прикреплять файлы к сообщениям
      Вы можете скачивать файлы