Ссылка на приватное зеркало всего за 1$. Внимание количество ограничено!!!

OK

1+1

iTunes

мы

OK

1

WEB-DLRip

Джокер

Пифагор

Ведьмак / The Witcher сериал

Лицензия

ПШазам

ОК

Оно 2

iTunes

30
pack

Вам бонус

ВАЖНО

!!Акция!!

Alien_RageХит недели

RePack

Resident Evil 21

ИГРА 18+

pack

RePack

jed

!!Акция!!

Alien_Rage

RePack

fifa19

RePack

Assassins Creed: Odyssey

RePack

NEED FOR SPEED™ PAYBACK

4 сезон

9 сезон

Бесстыжие 9 сезон

Все сериалы

все сериалы на PB.wtf

RePack

FAR CRY 5
  

Подарок с характером (Карен Оганесян) [2014, Россия, семейный, приключения, комедия, SATRip] piratbit.pw

Подарок с характером через торрент piratbit.pw

Размер: 1.37 GB | Добавлен: 5 лет 5 мес. назад | Торрент скачан:565 раз
Скачать  

14-07-2014 16:41 Подарок с характером Скачать торрент  


Подарок с характером


Год выпуска: 2014
Страна: Россия
Жанр:семейный, приключения, комедия
Продолжительность:01:24:35
Перевод: Оригинал [НТВ+]
Режиссер:Карен Оганесян

  • В ролях:

    Михаил Галустян (Михаил Орешкин), Артем Фадеев, Фёдор Бондарчук, Екатерина Климова, Николай Валуев, Ирина Безрукова, Катерина Шпица, Алексей Макаров, Константин Юшкевич, Инга Стрелкова-Оболдина, Галина Петрова, Наталья Костенева

  • Описание:
    Быть пандой весело! Но не Мише, который вынужден работать в костюме панды на детских праздниках. Ему тридцать лет, он живет в крохотной однушке на окраине Москвы, и у него нет серьезной работы. Все было так, пока его не позвали на день рождения к сыну олигарха. Артему девять лет, и у него есть тайный план, помочь осуществить который может только Миша. Мальчик и панда отправляются в путешествие через всю страну, то и дело вляпываясь в невероятные ситуации.

  • Мировая премьера:22 мая 2014


      Качество: SATRip
      Формат:AVI
      Видео кодек: XviD
      Аудио кодек:AC3
      Видео: 720x384 (1.875), 1920 kbps, 25 fps, 0,278 bpp
      Аудио: 5.1 / 48 kHz / 384 kbps / 16 bit



    Код:

    General
    Complete name                            : D:\Торенты\Podarok.s.Harakterom.2014 SATRip.avi
    Format                                   : AVI
    Format/Info                              : Audio Video Interleave
    File size                                : 1.37 GiB
    Duration                                 : 1h 24mn
    Overall bit rate                         : 2 315 Kbps
    Movie name                               : Podarok.s.Harakterom.2014.WEB-DLRip.ELEKTRI4KA
    Director                                 : ELEKTRI4KA
    Writing application                      : VirtualDubMod 1.5.10.2 (build 2540/release)
    Original source form/Name                : Movie
    Copyright                                : uniongang.tv

    Video
    ID                                       : 0
    Format                                   : MPEG-4 Visual
    Format profile                           : Advanced Simple@L5
    Format settings, BVOP                    : 2
    Format settings, QPel                    : No
    Format settings, GMC                     : No warppoints
    Format settings, Matrix                  : Custom
    Codec ID                                 : XVID
    Codec ID/Hint                            : XviD
    Duration                                 : 1h 24mn
    Bit rate                                 : 1 921 Kbps
    Width                                    : 720 pixels
    Height                                   : 384 pixels
    Display aspect ratio                     : 1.875
    Frame rate                               : 25.000 fps
    Color space                              : YUV
    Chroma subsampling                       : 4:2:0
    Bit depth                                : 8 bits
    Scan type                                : Progressive
    Compression mode                         : Lossy
    Bits/(Pixel*Frame)                       : 0.278
    Stream size                              : 1.14 GiB (83%)
    Writing library                          : XviD 1.2.1 (UTC 2008-12-04)

    Audio
    ID                                       : 1
    Format                                   : AC-3
    Format/Info                              : Audio Coding 3
    Mode extension                           : CM (complete main)
    Codec ID                                 : 2000
    Duration                                 : 1h 24mn
    Bit rate mode                            : Constant
    Bit rate                                 : 384 Kbps
    Channel(s)                               : 6 channels
    Channel positions                        : Front: L C R, Side: L R, LFE
    Sampling rate                            : 48.0 KHz
    Bit depth                                : 16 bits
    Compression mode                         : Lossy
    Stream size                              : 232 MiB (17%)
    Alignment                                : Split accross interleaves
    Interleave, duration                     : 40 ms (1.00 video frame)
    Interleave, preload duration             : 500 ms

    Скриншоты:

    Каталог Новинок (Фильмы-трейлеры, Игры, Сериалы, Мультфильмы)

    © Оформление by Raven
    piratbit.pw



  • Скачать Подарок с характером через торрент http://pic.kartinco.top/new/img/2014-06/22/159t2sbyx2rud40u3pz60vqa8.png Скачать фильм Подарок с характером через торрент бесплантно в хорошем качестве Описание:Быть пандой весело! Но не Мише, который вынужден работать в костюме панды на детских праздниках. Ему тридцать лет, он живет в ... 8.7 10 23
    Торрент: Зарегистрирован [2014-07-22 16:30] · скачан: 565 раз
    Статус: √ проверено
    Размер: 1.37 GB
    Как cкачать? Как скачать Подарок с характером через торрент | qTorrent

    % Раздел Тема Автор DL S | L
    Наши фильмы (HD, WEB-DL 720p, 1080p) [ 2.53 GB ] Подарок с характером [2014 BDRip 720p] [] bober100 Скачать
    2 | 0
    Наши фильмы (HD, WEB-DL 720p, 1080p) [ 6.56 GB ] Подарок с характером [2014 BDRip 1080p Оригинал ] от R.G. HD-Films DEVI Скачать
    1 | 0
    Наши фильмы (DVD фильмы) [ 4.67 GB ] Подарок с характером [2014 DVD9] R5 voovaz Скачать
    1 | 0
    Наши фильмы (Blu-ray, BD-Remux, HDDVD) [ 19.7 GB ] Подарок с характером [2014 Blu-ray Оригинал] Бумер Скачать
    1 | 0
    Наши новые фильмы 2014 [ 1.46 GB ] Подарок с характером [2014 HDRip-AVC] [] От R.G. PiratFilms White Smoke Скачать
    1 | 0
    Наши новые фильмы 2014 [ 1.37 GB ] Подарок с характером [2014 Россия HDRip] Ворон Скачать
    1 | 0


    Последний раз редактировалось: Ворон (2014-07-15 16:34), всего редактировалось 1 раз

    28-11-2019 20:33  

    Отключить всю рекламу на сайте

    15-07-2014 06:39 Подарок с характером Скачать торрент  

    очередная дряньpiratbit.pw



    18-07-2014 19:09 Подарок с характером Скачать торрент  

    мда! снова эти рожи одни и те же! + горила валуев! как боксер никчемный так и актер-piratbit.pw



      Дорогой пользователь! Огромная просьба, поблагодарите релизера, оцените раздачу и оставьте свои комментарий, если Вы скачали Подарок с характером через торрент бесплатно! Внесите свою лепту в развитие PiratBit!
      Комментировать посты могут только пользователи прошедшие не сложную регистрацию
      Показать сообщения:    

      Подарок с характером через торрент
      Скачать бесплатно Подарок с характером
      Подарок с характером скачать торрент
      Подарок с характером смотреть онлайн
      Cкачать фильм Подарок с характером бесплатно
      Подарок с характером скачать торрент в хорошем качестве
      Подарок с характером смотреть онлайн бесплатно в хорошем качестве


      Вы не можете начинать темы
      Вы не можете отвечать на сообщения
      Вы не можете редактировать свои сообщения
      Вы не можете удалять свои сообщения
      Вы не можете голосовать в опросах
      Вы не можете прикреплять файлы к сообщениям
      Вы можете скачивать файлы