1 сезон

1 сезон

iTunes

1

iTunes

Кинопоиск HD

iTunes

13

1 сезон

RePack

30

Deluxe

ВАЖНО

ИГРА 18+

pack

RePack

MK11
pack

Легкие деньги

RePack

jed

RePack

fifa19

RePack

RDR2

RePack

NEED FOR SPEED™ PAYBACK

4 сезон

9 сезон

Бесстыжие 9 сезон

Все сериалы

все сериалы на PB.wtf

RePack

FAR CRY 5
  
Magnet ссылка

Идеальный незнакомец / Perfect Stranger (Джеймс Фоули) [2007, триллер, драма, криминал, детектив, BDRip] DUB piratbit.pw

Идеальный незнакомец через торрент piratbit.pw

Размер: 2.36 GB | Добавлен: 6 лет 8 мес. назад | Торрент скачан:128 раз
Скачать  

29-08-2014 14:29 Идеальный незнакомец Скачать торрент  

Идеальный незнакомец / Perfect Stranger
«Как далеко ты способен зайти?»


Год выпуска: 2007
Страна: США
Жанр: триллер, драма, криминал, детектив
Продолжительность: 01:48:58
Перевод: Профессиональный (дублированный)

Режиссер: Джеймс Фоули
Сценарий: Тодд Комарники, Джон Бокенкамп
Продюсер: Элейн Голдсмит-Томас, Рональд М. Бозман, Стивен Дж. Идс
Оператор: Анастас Н. Микос
Композитор : Антонио Пинто
Художник: Билл Грум, Чарли Бил, Рени Эрлих Калфус
Монтаж: Кристофер Теллефсен

В ролях: Холли Берри / Halle Berry (Rowena Price), Брюс Уиллис / Bruce Willis (Harrison Hill), Джованни Рибизи / Giovanni Ribisi (Miles Haley), Ричард Портноу / Richard Portnow (Narron), Гари Дурдан / Gary Dourdan (Cameron), Флоренция Лозаньо / Florencia Lozano (Lieutenant Tejada), Никки Эйкокс / Nicki Aycox (Grace), Кэтлин Чэлфант / Kathleen Chalfant (Elizabeth Clayton)


Описание: Когда журналистка Ровена Прайс, занимающаяся расследованием убийства своей подруги, узнает, что к нему может быть причастен влиятельный глава рекламного агентства Харрисон Хилл, она затевает опасную игру вместе со своим помощником Майлзом Хэйли. Принимая образы Катарины, машинистки в агентстве Хилла, и Вероники, девушки, с которой Хилл флиртует в Интернете, она плетет хитроумную паутину вокруг своей жертвы, чтобы, в конечном счете, выяснить, что она не единственная, кто меняет свои личины. Чем ближе мы приближаемся к разгадке тайны, тем очевиднее ответ на вопрос, как далеко люди готовы идти, чтобы защитить ее: сокровенную тайну.

СЭМПЛ

Бюджет: $60 795 000
Сборы в США: $23 984 949
Сборы в мире: + $49 105 662 = $73 090 611
Сборы в России: $3 790 024
Зрители: США 3.45 млн , Испания 757 тыс. , Россия 638.5 тыс.
Премьера (мир): 10 апреля 2007
Премьера (РФ): 19 апреля 2007, «BVSPR»
Релиз на DVD: 7 июня 2007, «Columbia/Sony»
Релиз на Blu-Ray: 4 октября 2007, «Columbia/Sony»
Рейтинг MPAA: Лицам до 17 лет обязательно присутствие взрослого


Качество: BDRip
Формат: MKV
Видео кодек: AVC
Аудио кодек: AC3
Видео: 1024x426 (2.40:1), 23.976 fps, AVC, 2 199 Kbps
Аудио: Аудио #1: AC3, 448 Kbps, 48.0 KHz, 6 ch
Аудио #2: AC3, 448 Kbps, 48.0 KHz, 6 ch
· Съемки картины начались 31 января 2006 года.

· Было снято три разных концовки фильма, в каждой из которых убийцами оказывались разные люди.

· Это первая картина, снятая на «ground zero», месте, на котором находились Башни-Близнецы.

· В оригинале слоган картины гласит: «Насколько далеко ты зайдешь, чтобы сохранить тайну?».

· Фильм буквально напичкан product placement — и Reebok, и Heineken, и Victoria`s Secret.

· Изначально местом действия был выбран Новый Орлеан, но из-за последствий урагана Катрина съемки перенесли в Нью-Йорк.

Код:

General
Complete name                    : Idealnyj.neznakomec.2007.BDRip-AVC.mkv
Format                           : Matroska
File size                        : 2.36 GiB
Duration                         : 1h 48mn
Overall bit rate                 : 3 094 Kbps

Video
ID                               : 1
Format                           : AVC
Format/Info                      : Advanced Video Codec
Format profile                   : High@L4.1
Format settings, CABAC           : Yes
Format settings, ReFrames        : 8 frames
Muxing mode                      : Container profile=Unknown@4.1
Codec ID                         : V_MPEG4/ISO/AVC
Duration                         : 1h 48mn
Bit rate                         : 2 199 Kbps
Width                            : 1 024 pixels
Height                           : 426 pixels
Display aspect ratio             : 2.40:1
Frame rate                       : 23.976 fps
Color space                      : YUV
Chroma subsampling               : 4:2:0
Bit depth                        : 8 bits
Scan type                        : Progressive
Bits/(Pixel*Frame)               : 0.210
Stream size                      : 1.63 GiB (69%)
Writing library                  : x264 core 129 r2245 bc13772

Audio #1
ID                               : 2
Format                           : AC-3
Format/Info                      : Audio Coding 3
Mode extension                   : CM (complete main)
Codec ID                         : A_AC3
Duration                         : 1h 48mn
Bit rate mode                    : Constant
Bit rate                         : 448 Kbps
Channel(s)                       : 6 channels
Channel positions                : Front: L C R, Side: L R, LFE
Sampling rate                    : 48.0 KHz
Bit depth                        : 16 bits
Stream size                      : 349 MiB (14%)
Language                         : Russian

Audio #2
ID                               : 3
Format                           : AC-3
Format/Info                      : Audio Coding 3
Mode extension                   : CM (complete main)
Codec ID                         : A_AC3
Duration                         : 1h 48mn
Bit rate mode                    : Constant
Bit rate                         : 448 Kbps
Channel(s)                       : 6 channels
Channel positions                : Front: L C R, Side: L R, LFE
Sampling rate                    : 48.0 KHz
Bit depth                        : 16 bits
Stream size                      : 349 MiB (14%)

piratbit.pw



Скачать Идеальный незнакомец через торрент http://i64.fastpic.ru/big/2014/0829/51/7c9d7e7b7040bc9cac7e2eff052b7951.jpg Скачать фильм Идеальный незнакомец через торрент бесплантно в хорошем качестве Описание: Когда журналистка Ровена Прайс, занимающаяся расследованием убийства своей подруги, узнает, что к нему может быть причастен ... 10 10 8
Торрент: Зарегистрирован [2014-08-29 14:29] · скачан: 128 раз
Статус: √ проверено
Размер: 2.36 GB
Как cкачать? Как скачать Идеальный незнакомец через торрент | UTorrent

% Раздел Тема Автор DL S | L
Фильмы [HD 720p, 1080p] (Хороший звук DUB, MVO) [ 13.86 GB ] Идеальный незнакомец / Perfect stranger [2007 BDRip 1080p] DUB + AVO - KORSAR kisa1980 Скачать
1 | 0
Фильмы [HD 720p, 1080p] (Хороший звук DUB, MVO) [ 11.03 GB ] Идеальный незнакомец / Perfect stranger [2007 BDRip 1080p by msltel] DUB AVO msltel Скачать
1 | 0
Фильмы [HD 720p, 1080p] (Хороший звук DUB, MVO) [ 4.16 GB ] Идеальный незнакомец / Perfect stranger [2007 BDRip 720p by msltel] DUB AVO msltel Скачать
1 | 0
Фильмы 2006-2008 [ 2.58 GB ] Идеальный незнакомец / Perfect stranger [2007 BDRip AVC by msltel] DUB AVO msltel Скачать
1 | 0

28-11-2019 20:33  

Отключить всю рекламу на сайте

    Дорогой пользователь! Огромная просьба, поблагодарите релизера, оцените раздачу и оставьте свои комментарий, если Вы скачали Идеальный незнакомец через торрент бесплатно! Внесите свою лепту в развитие PiratBit!
    Комментировать посты могут только пользователи прошедшие не сложную регистрацию
    Показать сообщения:    

    Идеальный незнакомец через торрент
    Скачать бесплатно Идеальный незнакомец
    Идеальный незнакомец скачать торрент
    Идеальный незнакомец смотреть онлайн
    Cкачать фильм Идеальный незнакомец бесплатно
    Идеальный незнакомец скачать торрент в хорошем качестве
    Идеальный незнакомец смотреть онлайн бесплатно в хорошем качестве


    Вы не можете начинать темы
    Вы не можете отвечать на сообщения
    Вы не можете редактировать свои сообщения
    Вы не можете удалять свои сообщения
    Вы не можете голосовать в опросах
    Вы не можете прикреплять файлы к сообщениям
    Вы можете скачивать файлы