1 сезон

3 сезон

iTunes

1

iTunes

DUB Netflix

iTunes

13

1 сезон

RePack

30

Deluxe

pack

Легкие деньги

ВАЖНО

ИГРА 18+

pack

RePack

MK11

RePack

jed

RePack

fifa19

RePack

RDR2

RePack

NEED FOR SPEED™ PAYBACK

4 сезон

9 сезон

Бесстыжие 9 сезон

Все сериалы

все сериалы на PB.wtf

RePack

FAR CRY 5

Anonymous, доброй ночи, мы не успеваем до 1 числа собрать деньги на оплату серверов, помогите нам пожалуйста в это трудное время. В качестве благодарности мы отключим Вам всю рекламу на сайте (укажите свой ник в строку Ваше имя)!

×
  
Magnet ссылка

Огнепоклонники / Blue Smoke (Дэвид Карсон) [2007 г., Триллер, драма, мелодрама, DVDRip, Профессиональный многоголосый] piratbit.pw

Огнепоклонники через торрент piratbit.pw

Размер: 1.46 GB | Добавлен: 6 лет 9 мес. назад | Торрент скачан:25 раз
Скачать  

29-08-2014 04:50 Огнепоклонники Скачать торрент  

Огнепоклонники / Blue Smoke

Год выпуска: 2007

Страна: США

Жанр: Триллер, драма, мелодрама

Продолжительность: 01:30:00

Перевод: Профессиональный многоголосый

Субтитры: Отсутствуют

Режиссер: Дэвид Карсон

Премьера в мире: 12 февраля 2007




В ролях: Алисия Уитт, Скотт Бакула, Мэттью Сеттл, Талия Шайр, Эрик Кинлисайд, Джон Рирдон, Бенджамин Эйрс, Крис Фассбендер, Тэйлор Дофинаис, Дэвид Браун

Описание: Будучи в 11-летнем возрасте Рина стала свидетельницей пожара, который сравнял с землей семейную пиццерию. Это событие повлияло на выбор ее будущей профессии — она решила стать специалистом по расследованию причин воспламенения.
И, сейчас, годы спустя, Рина возвращается в места своего детства, где встречает свою судьбу — местного плотника. Но их бурному роману мешает разгореться тень прошлого...
Психопат, разрушивший их семейное дело, снова вторгается в жизнь Рины, чтобы разрушить ее благополучие. Выясняется, что маньяк обладает навязчивой идеей, воспламенять все и всех, кто дорог Рине. В мгновение ей предстоит проявить весь свой детективный талант, чтобы выследить одержимого пироэффектами злодея, пока ее жизнь и любовь не сгорели синим пламенем…


Качество: DVDRip
Формат: AVI
Видео кодек: XviD
Аудио кодек: AC3
Видео: XviD, 702x400, 1819 Кбит/сек, 25,000 кадров/сек, 0.253bpp
Аудио#1: AC3, 448 Кбит/сек, 6 каналов, 48,0 КГц






Полное имя : D:\КИНО\Ognepoklonniki.2007.DVDRip.avi
Формат : AVI
Формат/Информация : Audio Video Interleave
Размер файла : 1,46 Гбайт
Продолжительность : 1 ч. 31 м.
Общий поток : 2277 Кбит/сек
Программа кодирования : VirtualDubMod 1.5.10.3 | www.virtualdub-fr.org || (build 2550/release)
Библиотека кодирования : VirtualDubMod build 2550/release

Видео
Идентификатор : 0
Формат : MPEG-4 Visual
Профиль формата : Advanced Simple@L5
Параметр BVOP формата : 1
Параметр QPel формата : Нет
Параметр GMC формата : Без точки перехода
Параметр матрицы формата : Выборочная
Идентификатор кодека : XVID
Идентификатор кодека/Подсказка : XviD
Продолжительность : 1 ч. 31 м.
Битрейт : 1819 Кбит/сек
Ширина : 720 пикселей
Высота : 400 пикселей
Соотношение сторон : 16:9
Частота кадров : 25,000 кадров/сек
Цветовое пространство : YUV
Субдискретизация насыщенности : 4:2:0
Битовая глубина : 8 бит
Тип развёртки : Прогрессивная
Метод сжатия : С потерями
Бит/(Пиксели*Кадры) : 0.253
Размер потока : 1,16 Гбайт (80%)
Библиотека кодирования : XviD 73

Аудио
Идентификатор : 1
Формат : AC-3
Формат/Информация : Audio Coding 3
Расширение режима : CM (complete main)
Параметр Endianness формата : Big
Идентификатор кодека : 2000
Продолжительность : 1 ч. 31 м.
Вид битрейта : Постоянный
Битрейт : 448 Кбит/сек
Каналы : 6 каналов
Расположение каналов : Front: L C R, Side: L R, LFE
Частота : 48,0 КГц
Битовая глубина : 16 бит
Метод сжатия : С потерями
Размер потока : 293 Мбайт (20%)
Выравнивание : Разделение по промежуткам
Продолжительность промежутка : 40 мс. (1,00 видеокадр)
Время предзагрузки промежутка : 500 мс.

piratbit.pw



Скачать Огнепоклонники через торрент https://pic.kartinco.top/new/img/2014-08/29/7v0bpsojqxdko27sj1umrw1ae.jpg Скачать фильм Огнепоклонники через торрент бесплантно в хорошем качестве Описание: Будучи в 11-летнем возрасте Рина стала свидетельницей пожара, который сравнял с землей семейную пиццерию. Это событие повлияло на ... 10 10 3
Торрент: Зарегистрирован [2014-08-29 04:50] · скачан: 25 раз
Статус: √ проверено
Размер: 1.46 GB
Как cкачать? Как скачать Огнепоклонники через торрент | UTorrent

28-11-2019 20:33  

Отключить всю рекламу на сайте

    Дорогой пользователь! Огромная просьба, поблагодарите релизера, оцените раздачу и оставьте свои комментарий, если Вы скачали Огнепоклонники через торрент бесплатно! Внесите свою лепту в развитие PiratBit!
    Комментировать посты могут только пользователи прошедшие не сложную регистрацию
    Показать сообщения:    

    Огнепоклонники через торрент
    Скачать бесплатно Огнепоклонники
    Огнепоклонники скачать торрент
    Огнепоклонники смотреть онлайн
    Cкачать фильм Огнепоклонники бесплатно
    Огнепоклонники скачать торрент в хорошем качестве
    Огнепоклонники смотреть онлайн бесплатно в хорошем качестве


    Вы не можете начинать темы
    Вы не можете отвечать на сообщения
    Вы не можете редактировать свои сообщения
    Вы не можете удалять свои сообщения
    Вы не можете голосовать в опросах
    Вы не можете прикреплять файлы к сообщениям
    Вы можете скачивать файлы