1 сезон

3 сезон

iTunes

1

iTunes

DUB Netflix

iTunes

13

1 сезон

RePack

30

Deluxe

pack

Легкие деньги

ВАЖНО

ИГРА 18+

pack

RePack

MK11

RePack

jed

RePack

fifa19

RePack

RDR2

RePack

NEED FOR SPEED™ PAYBACK

4 сезон

9 сезон

Бесстыжие 9 сезон

Все сериалы

все сериалы на PB.wtf

RePack

FAR CRY 5

Anonymous, добрый вечер, мы не успеваем до 1 числа собрать деньги на оплату серверов, помогите нам пожалуйста в это трудное время. В качестве благодарности мы отключим Вам всю рекламу на сайте (укажите свой ник в строку Ваше имя)!

×
  
Magnet ссылка

Лепрекон: Начало / Leprechaun: Origins (Зэк Липовски / Zach Lipovsky) [2014, США, ужасы, HDRip, Любительский (одноголосый)[datynet] piratbit.pw

Лепрекон: Начало через торрент piratbit.pw

Размер: 1.19 GB | Добавлен: 6 лет 9 мес. назад | Торрент скачан:877 раз
Скачать  

27-08-2014 11:47 Лепрекон: Начало Скачать торрент  

Лепрекон: Начало / Leprechaun: Origins


  • Год выпуска: 2014
  • Страна: США
  • Жанр: ужасы

  • Продолжительность: 01:30:11
  • Перевод: Любительский (одноголосый)[datynet]

  • Режиссер: Зэк Липовски / Zach Lipovsky
  • В ролях:

    Стефани Беннетт (Sophie), Эндрю Данбар (Ben), Мелисса Роксбур (Jeni), Брендан Флетчер (David), Гари Чок (Hamish), Тич Грант (Sean), Брюс Блэйн (Ian), Адам Бойс (Francois), Мэри Блэк (Mary), Эмили Уллерап (Catherine), Гари Питерман (Irish Farmer), Дилан Постл (Leprechaun)

  • Описание:
    Путешествуя по живописным историческим местам Ирландии, четверо молодых ребят поддаются на уговоры местного жителя посетить местную достопримечательность - древние каменные статуи. Однако им предстоит узнать ужасную тайну, что хранит маленькая ирландская деревушка, и радушное гостеприимство жителей обернется коварнымии кровожадными планами.
  • Рейтинг:



  • Качество: HDRip
  • Формат: :AVI
  • Видео кодек: XviD
  • Аудио кодек: MP3
  • Видео: 720x400 (16:9), 1693 kbps, 23,976 fps, 0,245 bpp
  • Аудио: 2.0 / 44 kHz / 192 kbps /
  • Релиз от: GEKADOL
    Не нашли то, что искали? Для вас "Стол заказов" "Жмём сюда!"

    Код:

    General
    Complete name                            : I:\Leprechaun.Origins.2014.HDRip.avi
    Format                                   : AVI
    Format/Info                              : Audio Video Interleave
    File size                                : 1.19 GiB
    Duration                                 : 1h 30mn
    Overall bit rate                         : 1 895 Kbps
    Writing library                          : VirtualDub build 34753/release

    Video
    ID                                       : 0
    Format                                   : MPEG-4 Visual
    Format profile                           : Advanced Simple@L5
    Format settings, BVOP                    : 2
    Format settings, QPel                    : No
    Format settings, GMC                     : No warppoints
    Format settings, Matrix                  : Default (H.263)
    Muxing mode                              : Packed bitstream
    Codec ID                                 : XVID
    Codec ID/Hint                            : XviD
    Duration                                 : 1h 30mn
    Bit rate                                 : 1 693 Kbps
    Width                                    : 720 pixels
    Height                                   : 400 pixels
    Display aspect ratio                     : 16:9
    Frame rate                               : 23.976 fps
    Color space                              : YUV
    Chroma subsampling                       : 4:2:0
    Bit depth                                : 8 bits
    Scan type                                : Progressive
    Compression mode                         : Lossy
    Bits/(Pixel*Frame)                       : 0.245
    Stream size                              : 1.07 GiB (89%)
    Writing library                          : XviD 64

    Audio
    ID                                       : 1
    Format                                   : MPEG Audio
    Format version                           : Version 1
    Format profile                           : Layer 3
    Codec ID                                 : 55
    Codec ID/Hint                            : MP3
    Duration                                 : 1h 30mn
    Bit rate mode                            : Constant
    Bit rate                                 : 192 Kbps
    Channel(s)                               : 2 channels
    Sampling rate                            : 44.1 KHz
    Compression mode                         : Lossy
    Stream size                              : 124 MiB (10%)
    Alignment                                : Split accross interleaves
    Interleave, duration                     : 42 ms (1.00 video frame)
    Interleave, preload duration             : 500 ms


    Скриншоты:


    piratbit.pw



  • Скачать Лепрекон: Начало через торрент http://i65.fastpic.ru/big/2014/0827/6f/20fa22ae60c60aaf74374ae3a271666f.jpg Скачать фильм Лепрекон: Начало через торрент бесплантно в хорошем качестве Описание: Путешествуя по живописным историческим местам Ирландии, четверо молодых ребят поддаются на уговоры местного жителя посетить ... 9.1 10 23
    Торрент: Зарегистрирован [2014-08-27 11:47] · скачан: 877 раз
    Статус: T временная
    Размер: 1.19 GB
    Как cкачать? Как скачать Лепрекон: Начало через торрент | UTorrent

    28-11-2019 20:33  

    Отключить всю рекламу на сайте

    27-08-2014 15:07 Лепрекон: Начало Скачать торрент  

    Трэшак ))я помню старого лепрекона,смешной такой был)))piratbit.pw



    27-08-2014 15:21 Лепрекон: Начало Скачать торрент  

    Кажется даже трилогия была старого лепрекона.
    п.с.: смешной таки был, особенно там, где у бабы вымя взорвалось. )piratbit.pw



    27-08-2014 20:11 Лепрекон: Начало Скачать торрент  

    их ваще 6 частей последняя 2003 года,а в оригинале молодая Женька Энистон в наличии!piratbit.pw



    27-08-2014 20:50 Лепрекон: Начало Скачать торрент  

    редкое дерьмоpiratbit.pw



    28-08-2014 03:27 Лепрекон: Начало Скачать торрент  

    Последний на фото "В ролях" актер точно лепрекон его и гримировать не надо ахахахаpiratbit.pw



    26-11-2014 21:07 Лепрекон: Начало Скачать торрент  

    operokunp писал(а):

    Последний на фото "В ролях" актер точно лепрекон его и гримировать не надо ахахаха

    Над больными людьми грех смеяться.piratbit.pw



      Дорогой пользователь! Огромная просьба, поблагодарите релизера, оцените раздачу и оставьте свои комментарий, если Вы скачали Лепрекон: Начало через торрент бесплатно! Внесите свою лепту в развитие PiratBit!
      Комментировать посты могут только пользователи прошедшие не сложную регистрацию
      Показать сообщения:    

      Лепрекон: Начало через торрент
      Скачать бесплатно Лепрекон: Начало
      Лепрекон: Начало скачать торрент
      Лепрекон: Начало смотреть онлайн
      Cкачать фильм Лепрекон: Начало бесплатно
      Лепрекон: Начало скачать торрент в хорошем качестве
      Лепрекон: Начало смотреть онлайн бесплатно в хорошем качестве


      Вы не можете начинать темы
      Вы не можете отвечать на сообщения
      Вы не можете редактировать свои сообщения
      Вы не можете удалять свои сообщения
      Вы не можете голосовать в опросах
      Вы не можете прикреплять файлы к сообщениям
      Вы можете скачивать файлы