1 сезон

1 сезон

iTunes

1

КиноПоиск HD

Кинопоиск HD

iTunes

13

1 сезон

RePack

30

Новинка

ВАЖНО

ИГРА 18+

pack

RePack

MK11
pack

Легкие деньги

RePack

jed

RePack

fifa19

RePack

RDR2

RePack

NEED FOR SPEED™ PAYBACK

4 сезон

9 сезон

Бесстыжие 9 сезон

Все сериалы

все сериалы на PB.wtf

RePack

FAR CRY 5
  
Magnet ссылка

Кибернетический папа / Папа – робот / And You Thought Your Parents Were Weird (Тони Куксон / Tony Cookson) [1991, фантастическая комедия, VHSRip] [AVO] (П.Санаев) piratbit.pw

Кибернетический папа через торрент piratbit.pw

Размер: 1.38 GB | Добавлен: 6 лет 7 мес. назад | Торрент скачан:44 раза
Скачать  

26-08-2014 17:27 Кибернетический папа Скачать торрент  

Кибернетический папа / Папа – робот / And You Thought Your Parents Were Weird

Год выпуска: 1991
Страна: США
Жанр: фантастическая комедия
Продолжительность: 01:25:58
Перевод: Авторский (одноголосый, закадровый) - [Павел Санаев]

Режиссёр: Тони Куксон / Tony Cookson

В ролях: Марша Стрэссмен, Джошуа Джон Миллер, Эдан Гросс, Джон Квэйд, Сэм Беренс, Алан Тик, Сьюзэн Гибни, А.Дж. Ленджер

Описание:
Джош Карсон и его младший брат Макс сделали необычного робота. Они назвали его Ньюмэн. Робот умел всё и принимал команды «с голоса». И что самое удивительное, в него вселился дух отца мальчиков, который был талантливым электронщиком, погибшим два года назад. Необычным роботом заинтересовалось не только телевидение, но и фирма, занимающаяся воровством чужих идей.

СЭМПЛ

Качество: VHSRip
Формат: AVI
Видео кодек: XviD
Аудио кодек: AC3
Видео: 640x480, 25 fps, XviD build 47, 1946 kbps avg, 0.25 bit/pixel
Аудио: Audio: 48 kHz, AC3 Dolby Digital, 2/0 (L,R) ch ~192.00 kbps avg (Павел Санаев),

Автор рипа -- Синта Рурони
Фильм номинировался на премии:
Academy of Science Fiction, Fantasy & Horror Films, USA 1992
Nominated
Saturn Award Best Performance by a Younger Actor
Joshua John Miller
Young Artist Awards 1993
Nominated
Young Artist Award Best Young Actress Co-starring in a Motion Picture
A.J. Langer
Best Young Actor Co-starring in a Motion Picture
Edan Gross
Best Young Actor Starring in a Motion Picture
Joshua John Miller

Цитата:

Примечание:
Фильм оцифрован с видеокассеты «West Video» 1998 года выпуска на видеомагнитофоне Hi-Fi Stereo (6 Heads).

General
Format : AVI
Format/Info : Audio Video Interleave
File size : 1.38 GiB
Duration : 1h 32mn
Overall bit rate : 2 148 Kbps
Writing application : VirtualDubMod 1.5.10.2 (build 2540/release)
Writing library : VirtualDubMod build 2540/release
Video
ID : 0
Format : MPEG-4 Visual
Format profile : Advanced Simple@L5
Format settings, BVOP : 1
Format settings, QPel : No
Format settings, GMC : No warppoints
Format settings, Matrix : Default (H.263)
Codec ID : XVID
Codec ID/Hint : XviD
Duration : 1h 32mn
Bit rate : 1 947 Kbps
Width : 640 pixels
Height : 480 pixels
Display aspect ratio : 4:3
Frame rate : 25.000 fps
Color space : YUV
Chroma subsampling : 4:2:0
Bit depth : 8 bits
Scan type : Progressive
Compression mode : Lossy
Bits/(Pixel*Frame) : 0.253
Stream size : 1.25 GiB (91%)
Writing library : XviD 1.2.0.dev47 (UTC 2006-11-01)
Audio
ID : 1
Format : AC-3
Format/Info : Audio Coding 3
Mode extension : CM (complete main)
Codec ID : 2000
Duration : 1h 32mn
Bit rate mode : Constant
Bit rate : 192 Kbps
Channel(s) : 2 channels
Channel positions : Front: L R
Sampling rate : 48.0 KHz
Bit depth : 16 bits
Compression mode : Lossy
Stream size : 126 MiB (9%)
Alignment : Split accross interleaves
Interleave, duration : 40 ms (1.00 video frame)
Interleave, preload duration : 500 ms
piratbit.pw



Скачать Кибернетический папа через торрент http://s009.radikal.ru/i308/1408/45/cd46c7bc0e7b.jpg Скачать фильм Кибернетический папа через торрент бесплантно в хорошем качестве Описание: Джош Карсон и его младший брат Макс сделали необычного робота. Они назвали его Ньюмэн. Робот умел всё и принимал команды «с ... 9.9 10 10
Info! Золотая раздача, скачанное не засчитывается.
Торрент: Зарегистрирован [2014-08-26 17:27] · скачан: 44 раз
Статус: √ проверено
Размер: 1.38 GB
Как cкачать? Как скачать Кибернетический папа через торрент | UTorrent

28-11-2019 20:33  

Отключить всю рекламу на сайте

    Дорогой пользователь! Огромная просьба, поблагодарите релизера, оцените раздачу и оставьте свои комментарий, если Вы скачали Кибернетический папа через торрент бесплатно! Внесите свою лепту в развитие PiratBit!
    Комментировать посты могут только пользователи прошедшие не сложную регистрацию
    Показать сообщения:    

    Кибернетический папа через торрент
    Скачать бесплатно Кибернетический папа
    Кибернетический папа скачать торрент
    Кибернетический папа смотреть онлайн
    Cкачать фильм Кибернетический папа бесплатно
    Кибернетический папа скачать торрент в хорошем качестве
    Кибернетический папа смотреть онлайн бесплатно в хорошем качестве


    Вы не можете начинать темы
    Вы не можете отвечать на сообщения
    Вы не можете редактировать свои сообщения
    Вы не можете удалять свои сообщения
    Вы не можете голосовать в опросах
    Вы не можете прикреплять файлы к сообщениям
    Вы можете скачивать файлы