Ссылка на приватное зеркало нашего сайта всего за 1$. Внимание количество ограничено!!!

2 сезон

iTunes

1 сезон

1

iTunes

iTunes

iTunes

1 сезон

RePack

30

ИГРА 18+

pack

ВАЖНО

!!Акция!!

Alien_RageХит недели

RePack

MK11
pack

Забери бонус

RePack

jed

!!Акция!!

Alien_Rage

RePack

fifa19

RePack

Assassins Creed: Odyssey

RePack

NEED FOR SPEED™ PAYBACK

4 сезон

9 сезон

Бесстыжие 9 сезон

Все сериалы

все сериалы на PB.wtf

RePack

FAR CRY 5
  

Поддубный (Глеб Орлов) [2014 г., Драма, спорт, биография, BDRip-AVC] [Лицензия] piratbit.pw

Поддубный через торрент piratbit.pw

Размер: 2.18 GB | Добавлен: 6 лет 1 мес. назад | Торрент скачан:648 раз
Скачать  

26-08-2014 10:01 Поддубный Скачать торрент  

Поддубный
Год выпуска: 2014
Страна: Россия / Красная стрела, Студия Тритэ, Канал Россия
Жанр: Драма, спорт, биография
Продолжительность: 01:57:41
Субтитры: Нет

Режиссер: Глеб Орлов

В ролях: Михаил Пореченков, Дени Лаван, Владимир Ильин, Юрий Колокольников, Роман Мадянов, Александр Михайлов, Катерина Шпица, Максим Сапрыкин, Петр Крылов, Андрей Дебрин

Описание: Его называли Чемпион чемпионов. О силе и волевом характере Поддубного слагали легенды. И в 50 великий борец играючи одолевал молодых атлетов, а вопросах чести и справедливости не знал компромиссов. И лишь любовь смогла уложить Русского Богатыря на обе лопатки…



Качество: BDRip-AVC
Формат: MKV
Видео кодек: H.264
Аудио кодек: AC3
Видео: 1048x442 (2,37:1), 25,000 fps, 2204 kbps, 0.190 bit/pixel
Аудио: 48 kHz, AC3 Dolby Digital, 3/2 (L,C,R,l,r) + LFE ch, 448.00 kbps

Релиз группы:
Автор рипа: potroks

Общее
Уникальный идентификатор : 203891002816423057441887907917195364705 (0x9963FA90C55BEA5F8C7B2030D193C961)
Полное имя : Poddubnyi.2012.RUS.BDRip.x264.-HELLYWOOD.mkv
Формат : Matroska
Версия формата : Version 4 / Version 2
Размер файла : 2,18 Гбайт
Продолжительность : 1 ч. 57 м.
Общий поток : 2654 Кбит/сек
Название фильма : Поддубный (2012) - HELLYWOOD
Дата кодирования : UTC 2014-08-26 08:56:20
Программа кодирования : mkvmerge v5.9.0 ('On The Loose') built on Dec 15 2012 16:39:58
Библиотека кодирования : libebml v1.3.0 + libmatroska v1.4.0

Видео
Идентификатор : 1
Формат : AVC
Формат/Информация : Advanced Video Codec
Профиль формата : High@L4.1
Параметр CABAC формата : Да
Параметр ReFrames формата : 10 кадров
Идентификатор кодека : V_MPEG4/ISO/AVC
Продолжительность : 1 ч. 57 м.
Битрейт : 2204 Кбит/сек
Ширина : 1048 пикселей
Высота : 442 пикселя
Соотношение сторон : 2,40:1
Режим частоты кадров : Постоянный
Частота кадров : 25,000 кадров/сек
Цветовое пространство : YUV
Субдискретизация насыщенности : 4:2:0
Битовая глубина : 8 бит
Тип развёртки : Прогрессивная
Бит/(Пиксели*Кадры) : 0.190
Размер потока : 1,77 Гбайт (81%)
Заголовок : potroks
Библиотека кодирования : x264 core 130 r2273 b3065e6
Настройки программы : cabac=1 / ref=10 / deblock=1:-2:-1 / analyse=0x3:0x133 / me=umh / subme=11 / psy=1 / psy_rd=1.02:0.02 / mixed_ref=1 / me_range=32 / chroma_me=1 / trellis=2 / 8x8dct=1 / cqm=0 / deadzone=21,11 / fast_pskip=0 / chroma_qp_offset=-3 / threads=9 / lookahead_threads=2 / sliced_threads=0 / nr=0 / decimate=0 / interlaced=0 / bluray_compat=0 / constrained_intra=0 / bframes=11 / b_pyramid=2 / b_adapt=2 / b_bias=0 / direct=3 / weightb=1 / open_gop=0 / weightp=2 / keyint=250 / keyint_min=23 / scenecut=40 / intra_refresh=0 / rc_lookahead=60 / rc=2pass / mbtree=0 / bitrate=2204 / ratetol=1.0 / qcomp=0.70 / qpmin=0 / qpmax=69 / qpstep=4 / cplxblur=20.0 / qblur=0.5 / vbv_maxrate=50000 / vbv_bufsize=62500 / nal_hrd=none / ip_ratio=1.35 / pb_ratio=1.25 / aq=1:0.70
Язык : Russian
Default : Да
Forced : Нет

Аудио
Идентификатор : 2
Формат : AC-3
Формат/Информация : Audio Coding 3
Расширение режима : CM (complete main)
Параметр Endianness формата : Big
Идентификатор кодека : A_AC3
Продолжительность : 1 ч. 57 м.
Вид битрейта : Постоянный
Битрейт : 448 Кбит/сек
Каналы : 6 каналов
Расположение каналов : Front: L C R, Side: L R, LFE
Частота : 48,0 КГц
Битовая глубина : 16 бит
Метод сжатия : С потерями
Размер потока : 377 Мбайт (17%)
Заголовок : Original | DD 5.1 @ 448 kbps - Blu-Ray RUS
Язык : Russian
Default : Да
Forced : Да

Меню
00:00:00.000 : en:00:00:00.000
00:15:06.560 : en:00:15:06.560
00:24:31.440 : en:00:24:31.440
00:32:27.080 : en:00:32:27.080
00:40:12.400 : en:00:40:12.400
00:49:37.720 : en:00:49:37.720
00:55:58.640 : en:00:55:58.640
01:12:03.000 : en:01:12:03.000
01:19:30.720 : en:01:19:30.720
01:28:05.200 : en:01:28:05.200
01:35:50.000 : en:01:35:50.000
01:48:47.120 : en:01:48:47.120

piratbit.pw



Скачать Поддубный через торрент http://pic.kartinco.top/new/img/2014-08/26/utxnsve6ehfcvkl69q6xi0g6z.png Скачать фильм Поддубный через торрент бесплантно в хорошем качестве Описание: Его называли Чемпион чемпионов. О силе и волевом характере Поддубного слагали легенды. И в 50 великий борец играючи одолевал ... 9.9 10 16
Info! Золотая раздача, скачанное не засчитывается.
Торрент: Зарегистрирован [2014-08-26 10:01] · скачан: 648 раз
Статус: √ проверено
Размер: 2.18 GB
Как cкачать? Как скачать Поддубный через торрент | qTorrent

% Раздел Тема Автор DL S | L
Наши фильмы (Blu-ray, BD-Remux, HDDVD) [ 16.74 GB ] Поддубный [2014 биография BD-Remux 1080i Оригинал] лицензия Бумер Скачать
1 | 0
Документальные фильмы и телепередачи [ 372 MB ] Специальный корреспондент: Пальмира [2016 Россия авторский SATRip-AVC от AVP Studio] AVP Studio Скачать
1 | 0
Документальные фильмы и телепередачи [ 373 MB ] Специальный корреспондент: Пальмира [2016 Россия авторский SATRip от AVP Studio] AVP Studio Скачать
1 | 0
Наши новые фильмы 2014 [ 2.18 GB ] Поддубный [2014 биография BDRip] от HQ-ViDEO / Mr. Freeman Скачать
1 | 0
Наши новые фильмы 2014 [ 747 MB ] Поддубный [2014 Россия биография BDRip-AVC] sokol_ok Скачать
2 | 0
Наши новые фильмы 2014 [ 1.46 GB ] Поддубный [2014 биография BDRip-AVC] [] potroks Скачать
1 | 0
Наши новые фильмы 2014 [ 1.46 GB ] Поддубный [2014 Россия биография BDRip-AVC] sokol_ok Скачать
2 | 0


Последний раз редактировалось: potroks (2014-08-26 10:56), всего редактировалось 1 раз

28-11-2019 20:33  

Отключить всю рекламу на сайте

    Дорогой пользователь! Огромная просьба, поблагодарите релизера, оцените раздачу и оставьте свои комментарий, если Вы скачали Поддубный через торрент бесплатно! Внесите свою лепту в развитие PiratBit!
    Комментировать посты могут только пользователи прошедшие не сложную регистрацию
    Показать сообщения:    

    Поддубный через торрент
    Скачать бесплатно Поддубный
    Поддубный скачать торрент
    Поддубный смотреть онлайн
    Cкачать фильм Поддубный бесплатно
    Поддубный скачать торрент в хорошем качестве
    Поддубный смотреть онлайн бесплатно в хорошем качестве


    Вы не можете начинать темы
    Вы не можете отвечать на сообщения
    Вы не можете редактировать свои сообщения
    Вы не можете удалять свои сообщения
    Вы не можете голосовать в опросах
    Вы не можете прикреплять файлы к сообщениям
    Вы можете скачивать файлы