1 сезон

1 сезон

iTunes

1

КиноПоиск HD

Кинопоиск HD

iTunes

13

1 сезон

RePack

30

Ultimate

ВАЖНО

ИГРА 18+

pack

RePack

MK11
pack

Легкие деньги

RePack

jed

RePack

fifa19

RePack

RDR2

RePack

NEED FOR SPEED™ PAYBACK

4 сезон

9 сезон

Бесстыжие 9 сезон

Все сериалы

все сериалы на PB.wtf

RePack

FAR CRY 5
  
Magnet ссылка

Кенау / Kenau (Маартен Треёньет / Maarten Treurniet) [2014, Нидерланды, Венгрия, Бельгия, боевик, приключения, история, BDRip-AVC, Авторский (одноголосый)(А.Дольский) piratbit.pw

Кенау через торрент piratbit.pw

Размер: 1.84 GB | Добавлен: 6 лет 7 мес. назад | Торрент скачан:617 раз
Скачать  

24-08-2014 02:14 Кенау Скачать торрент  

Кенау / Kenau
«While she fights a heroic battle against the Spanish besieger with her female army, Kenau, driven by hate and sorrow of the execution of her youngest daughter, is threatened to also lose her eldest daughter, because her fear and pain are covered by her stubborn closeness»


  • Год выпуска: 2014
  • Страна: Нидерланды, Венгрия, Бельгия
  • Жанр: боевик, приключения, история
  • Продолжительность: 01:52:24
  • Перевод: Авторский (одноголосый)(А.Дольский)

  • Субтитры: английские,
  • Режиссер: Маартен Треёньет / Maarten Treurniet
  • В ролях:

    Моник Хендрикс (Kenau Simonsdochter Hasselaer), Лиза Смит (Gertruide), Барри Атсма (Wigbold Ripperda), Аттила Арпа (Don Diego), Салли Хармсен (Kathelijne), Питер Ван ден Бегин (Jacob), Маттис ван де Санде Бакхуйзен (Pieter Ripperda), Йап Спийкерс (Duyff), Саймон Нэйдер (Julio, Spanish Officer), Зольтан Папп (Executioner), Берт Луппес (Priest), Софи ван Винден (Magdalena)

  • Описание:
    Фильм основан на реальных исторических событиях, когда испанцы имели Влacть над частью Нидерландов, а также рассказывает о роли женщины в борьбе за свободу своей страны. В то время пока Кенау героически борется против испанского завоевателя с армией, состоящей только из женщин, она, движимая ненавистью и скорбью из-за казни ее младшей дочери, может также потерять свою старшую дочь, так как ее страх и материнская любовь неотъемлемы.
  • Рейтинг:



  • Качество: BDRip-AVC
  • Формат: :MKV
  • Видео кодек: AVC
  • Аудио кодек: AC3
  • Видео: 1024x428 (2.40:1), 1452 kbps, 23,976 fps, 0,138 bpp
  • Аудио №1: русский / 5.1 / 48 kHz / 448 kbps / 16 bit (А.Дольский)
  • Аудио №2: английский / 5.1 / 48 kHz / 448 kbps / 16 bit
  • Релиз от: GEKADOL
    Не нашли то, что искали? Для вас "Стол заказов" "Жмём сюда!"

    Код:

    General
    Unique ID                                : 207218062293195684101907560378213733683 (0x9BE4BF432E190D76B46450D18C9A1533)
    Complete name                            : I:\Kenau.2014.BDRip.AVC.ExKinoRay.mkv
    Format                                   : Matroska
    Format version                           : Version 2
    File size                                : 1.84 GiB
    Duration                                 : 1h 52mn
    Overall bit rate                         : 2 347 Kbps
    Movie name                               : Kenau 2014 from ExKinoRay
    Encoded date                             : UTC 2014-08-23 17:55:47
    Writing application                      : mkvmerge v4.9.1 ('Ich will') built on Jul 11 2011 23:53:15
    Writing library                          : libebml v1.2.1 + libmatroska v1.1.1

    Video
    ID                                       : 1
    Format                                   : AVC
    Format/Info                              : Advanced Video Codec
    Format profile                           : High@L4.1
    Format settings, CABAC                   : Yes
    Format settings, ReFrames                : 9 frames
    Codec ID                                 : V_MPEG4/ISO/AVC
    Duration                                 : 1h 52mn
    Bit rate                                 : 1 452 Kbps
    Width                                    : 1 024 pixels
    Height                                   : 428 pixels
    Display aspect ratio                     : 2.40:1
    Frame rate                               : 23.976 fps
    Color space                              : YUV
    Chroma subsampling                       : 4:2:0
    Bit depth                                : 8 bits
    Scan type                                : Progressive
    Bits/(Pixel*Frame)                       : 0.138
    Stream size                              : 1.10 GiB (60%)
    Title                                    : Enigma-Vladislav71
    Writing library                          : x264 core 116 r2044 392e762
    Encoding settings                        : cabac=1 / ref=9 / deblock=1:-2:-2 / analyse=0x3:0x113 / me=umh / subme=9 / psy=1 / psy_rd=1.00:0.20 / mixed_ref=1 / me_range=32 / chroma_me=1 / trellis=2 / 8x8dct=1 / cqm=0 / deadzone=21,11 / fast_pskip=0 / chroma_qp_offset=-3 / threads=12 / sliced_threads=0 / nr=0 / decimate=0 / interlaced=0 / bluray_compat=0 / constrained_intra=0 / bframes=9 / b_pyramid=2 / b_adapt=2 / b_bias=0 / direct=3 / weightb=1 / open_gop=0 / weightp=2 / keyint=240 / keyint_min=23 / scenecut=40 / intra_refresh=0 / rc=2pass / mbtree=0 / bitrate=1452 / ratetol=1.0 / qcomp=0.60 / qpmin=0 / qpmax=69 / qpstep=4 / cplxblur=20.0 / qblur=0.5 / ip_ratio=1.40 / pb_ratio=1.30 / aq=1:1.00
    Default                                  : Yes
    Forced                                   : No

    Audio #1
    ID                                       : 2
    Format                                   : AC-3
    Format/Info                              : Audio Coding 3
    Mode extension                           : CM (complete main)
    Codec ID                                 : A_AC3
    Duration                                 : 1h 52mn
    Bit rate mode                            : Constant
    Bit rate                                 : 448 Kbps
    Channel(s)                               : 6 channels
    Channel positions                        : Front: L C R, Side: L R, LFE
    Sampling rate                            : 48.0 KHz
    Bit depth                                : 16 bits
    Compression mode                         : Lossy
    Stream size                              : 360 MiB (19%)
    Title                                    : AVO Dolskiy
    Language                                 : Russian
    Default                                  : Yes
    Forced                                   : No

    Audio #2
    ID                                       : 3
    Format                                   : AC-3
    Format/Info                              : Audio Coding 3
    Mode extension                           : CM (complete main)
    Codec ID                                 : A_AC3
    Duration                                 : 1h 52mn
    Bit rate mode                            : Constant
    Bit rate                                 : 448 Kbps
    Channel(s)                               : 6 channels
    Channel positions                        : Front: L C R, Side: L R, LFE
    Sampling rate                            : 48.0 KHz
    Bit depth                                : 16 bits
    Compression mode                         : Lossy
    Stream size                              : 360 MiB (19%)
    Language                                 : English
    Default                                  : No
    Forced                                   : No

    Text
    ID                                       : 4
    Format                                   : UTF-8
    Codec ID                                 : S_TEXT/UTF8
    Codec ID/Info                            : UTF-8 Plain Text
    Language                                 : English
    Default                                  : No
    Forced                                   : No

    Menu
    00:00:00.000                             : nl:Chapter 01
    00:07:41.169                             : nl:Chapter 02
    00:16:27.945                             : nl:Chapter 03
    00:27:17.052                             : nl:Chapter 04
    00:34:53.257                             : nl:Chapter 05
    00:41:32.531                             : nl:Chapter 06
    00:51:10.942                             : nl:Chapter 07
    00:59:51.254                             : nl:Chapter 08
    01:06:57.930                             : nl:Chapter 09
    01:15:40.410                             : nl:Chapter 10
    01:28:10.118                             : nl:Chapter 11
    01:36:42.046                             : nl:Chapter 12
    01:46:42.687                             : nl:Chapter 13


    Скриншоты:


    piratbit.pw



  • Скачать Кенау через торрент http://i67.fastpic.ru/big/2014/0824/86/50a36bc8247a0e68ac2ecdd13e7ca886.jpg Скачать фильм Кенау через торрент бесплантно в хорошем качестве Описание: Фильм основан на реальных исторических событиях, когда испанцы имели Влacть над частью Нидерландов, а также рассказывает о роли ... 10 10 12
    Торрент: Зарегистрирован [2014-08-24 02:14] · скачан: 617 раз
    Статус: √ проверено
    Размер: 1.84 GB
    Как cкачать? Как скачать Кенау через торрент | UTorrent

    28-11-2019 20:33  

    Отключить всю рекламу на сайте

      Дорогой пользователь! Огромная просьба, поблагодарите релизера, оцените раздачу и оставьте свои комментарий, если Вы скачали Кенау через торрент бесплатно! Внесите свою лепту в развитие PiratBit!
      Комментировать посты могут только пользователи прошедшие не сложную регистрацию
      Показать сообщения:    

      Кенау через торрент
      Скачать бесплатно Кенау
      Кенау скачать торрент
      Кенау смотреть онлайн
      Cкачать фильм Кенау бесплатно
      Кенау скачать торрент в хорошем качестве
      Кенау смотреть онлайн бесплатно в хорошем качестве


      Вы не можете начинать темы
      Вы не можете отвечать на сообщения
      Вы не можете редактировать свои сообщения
      Вы не можете удалять свои сообщения
      Вы не можете голосовать в опросах
      Вы не можете прикреплять файлы к сообщениям
      Вы можете скачивать файлы