1 сезон

3 сезон

iTunes

1

iTunes

DUB Netflix

iTunes

13

1 сезон

RePack

30

Deluxe

pack

Легкие деньги

ВАЖНО

ИГРА 18+

pack

RePack

MK11

RePack

jed

RePack

fifa19

RePack

RDR2

RePack

NEED FOR SPEED™ PAYBACK

4 сезон

9 сезон

Бесстыжие 9 сезон

Все сериалы

все сериалы на PB.wtf

RePack

FAR CRY 5

Anonymous, доброе утро, мы не успеваем до 1 числа собрать деньги на оплату серверов, помогите нам пожалуйста в это трудное время. В качестве благодарности мы отключим Вам всю рекламу на сайте (укажите свой ник в строку Ваше имя)!

×
  
Magnet ссылка

Расплата / The Reckoning (Джон В. Сото / John V. Soto) [2014, Австралия, триллер, криминал, детектив, HDRip, Любительский (одноголосый) [R.A.I.M.] piratbit.pw

Расплата через торрент piratbit.pw

Размер: 1.44 GB | Добавлен: 6 лет 9 мес. назад | Торрент скачан:214 раз
Скачать  

23-08-2014 02:53 Расплата Скачать торрент  

Расплата / The Reckoning
«Justice will come for you»


  • Год выпуска: 2014
  • Страна: Австралия
  • Жанр: триллер, криминал, детектив
  • Продолжительность: 01:25:05
  • Перевод: Любительский (одноголосый) [R.A.I.M.]

  • Режиссер: Джон В. Сото / John V. Soto
  • В ролях:

    Вива Бьянка (Detective Jane Lambert), Люк Хемсворт (Detective Jason Pearson), Ханна Мэнгэн Лоуренс (Rachel), Джонатан ЛаПалья (Detective Robbie Green), Kelsie Anderson (Sarah), Лаура Колье (Forensic Scientist), Алекс Уильямс (AJ), Priscilla-Anne Forder (Officer Sally Franklin), Аманда Дау (Maxine), Клара Хелмс (Police Woman), Том О’Салливан (Connor), Оливия Шарлотта (Chloe)

  • Описание:
    После того как его напарника убили, детектив пытается выследить двух подростков, которые запечатлели убийцу на видео...
  • Рейтинг:



  • Качество: HDRip
  • Формат: :AVI
  • Видео кодек: XviD
  • Аудио кодек: AC3
  • Видео: 720x304 (2.35:1), 1889 kbps, 24 fps, 0,360 bpp
  • Аудио №1: 2.0 / 48 kHz / 256 kbps / 16 bit
    Аудио №2: 2.0 / 48 kHz / 256 kbps / 16 bit
  • Релиз от: GEKADOL
    Не нашли то, что искали? Для вас "Стол заказов" "Жмём сюда!"

    Код:

    General
    Complete name                            : I:\The.Reckoning.2014.L1.BDRRip_Twi7ter.avi
    Format                                   : AVI
    Format/Info                              : Audio Video Interleave
    File size                                : 1.44 GiB
    Duration                                 : 1h 25mn
    Overall bit rate                         : 2 416 Kbps
    Writing application                      : VirtualDubModRus 1.5.10.2 (build 2542/release)
    Writing library                          : VirtualDubMod build 2542/release

    Video
    ID                                       : 0
    Format                                   : MPEG-4 Visual
    Format profile                           : Advanced Simple@L5
    Format settings, BVOP                    : 2
    Format settings, QPel                    : No
    Format settings, GMC                     : No warppoints
    Format settings, Matrix                  : Default (H.263)
    Muxing mode                              : Packed bitstream
    Codec ID                                 : XVID
    Codec ID/Hint                            : XviD
    Duration                                 : 1h 25mn
    Bit rate                                 : 1 890 Kbps
    Width                                    : 720 pixels
    Height                                   : 304 pixels
    Display aspect ratio                     : 2.35:1
    Frame rate                               : 24.000 fps
    Color space                              : YUV
    Chroma subsampling                       : 4:2:0
    Bit depth                                : 8 bits
    Scan type                                : Progressive
    Compression mode                         : Lossy
    Bits/(Pixel*Frame)                       : 0.360
    Stream size                              : 1.12 GiB (78%)
    Writing library                          : XviD 64

    Audio #1
    ID                                       : 1
    Format                                   : AC-3
    Format/Info                              : Audio Coding 3
    Mode extension                           : CM (complete main)
    Codec ID                                 : 2000
    Duration                                 : 1h 25mn
    Bit rate mode                            : Constant
    Bit rate                                 : 256 Kbps
    Channel(s)                               : 2 channels
    Channel positions                        : Front: L R
    Sampling rate                            : 48.0 KHz
    Bit depth                                : 16 bits
    Compression mode                         : Lossy
    Stream size                              : 156 MiB (11%)
    Alignment                                : Split accross interleaves
    Interleave, duration                     : 42 ms (1.00 video frame)
    Interleave, preload duration             : 500 ms

    Audio #2
    ID                                       : 2
    Format                                   : AC-3
    Format/Info                              : Audio Coding 3
    Mode extension                           : CM (complete main)
    Codec ID                                 : 2000
    Duration                                 : 1h 25mn
    Bit rate mode                            : Constant
    Bit rate                                 : 256 Kbps
    Channel(s)                               : 2 channels
    Channel positions                        : Front: L R
    Sampling rate                            : 48.0 KHz
    Bit depth                                : 16 bits
    Compression mode                         : Lossy
    Stream size                              : 156 MiB (11%)
    Alignment                                : Split accross interleaves
    Interleave, duration                     : 42 ms (1.00 video frame)
    Interleave, preload duration             : 500 ms


    Скриншоты:


    piratbit.pw



  • Скачать Расплата через торрент http://i68.fastpic.ru/big/2014/0823/3d/4a3d05ab97f8b48fa8c36af0df8eae3d.jpg Скачать фильм Расплата через торрент бесплантно в хорошем качестве Описание: После того как его напарника убили, детектив пытается выследить двух подростков, которые запечатлели убийцу на ... 9.3 10 6
    Торрент: Зарегистрирован [2014-08-23 02:53] · скачан: 214 раз
    Статус: T временная
    Размер: 1.44 GB
    Как cкачать? Как скачать Расплата через торрент | UTorrent

    % Раздел Тема Автор DL S | L
    T Фильмы 2015 (Звук TS, Cam, VO, DVO) [ 1.46 GB ] Крампус: расплата / Krampus: The Reckoning [2015 WEB-DLRip] DVO Ворон Скачать
    1 | 0

    28-11-2019 20:33  

    Отключить всю рекламу на сайте

      Дорогой пользователь! Огромная просьба, поблагодарите релизера, оцените раздачу и оставьте свои комментарий, если Вы скачали Расплата через торрент бесплатно! Внесите свою лепту в развитие PiratBit!
      Комментировать посты могут только пользователи прошедшие не сложную регистрацию
      Показать сообщения:    

      Расплата через торрент
      Скачать бесплатно Расплата
      Расплата скачать торрент
      Расплата смотреть онлайн
      Cкачать фильм Расплата бесплатно
      Расплата скачать торрент в хорошем качестве
      Расплата смотреть онлайн бесплатно в хорошем качестве


      Вы не можете начинать темы
      Вы не можете отвечать на сообщения
      Вы не можете редактировать свои сообщения
      Вы не можете удалять свои сообщения
      Вы не можете голосовать в опросах
      Вы не можете прикреплять файлы к сообщениям
      Вы можете скачивать файлы