Ссылка на приватное зеркало всего за 1$. Внимание количество ограничено!!!

iTunes

iTunes

iTunes

1

iTunes

iTunes

iTunes

iTunes

iTunes

30
pack

$ от Little Big

ВАЖНО

!!Акция!!

Alien_RageХит недели

RePack

Resident Evil 21

ИГРА 18+

pack

RePack

jed

!!Акция!!

Alien_Rage

RePack

fifa19

RePack

Assassins Creed: Odyssey

RePack

NEED FOR SPEED™ PAYBACK

4 сезон

9 сезон

Бесстыжие 9 сезон

Все сериалы

все сериалы на PB.wtf

RePack

FAR CRY 5
  

Небо падших (Валентин Донсков) [2014, Россия, драма, WEBRip) piratbit.pw

Небо падших через торрент piratbit.pw

Размер: 1.37 GB | Добавлен: 5 лет 10 мес. назад | Торрент скачан:1837 раз
Скачать  

20-08-2014 03:58 Небо падших Скачать торрент  

Небо падших


  • Год выпуска: 2014
  • Страна: Россия
  • Жанр: драма
  • Продолжительность: 02:01:47
  • Перевод: Не требуется

  • Режиссер: Валентин Донсков
  • В ролях:

    Кирилл Плетнёв (Шарманов), Екатерина Вилкова (Катя), Анастасия Панина (Таня), Даниил Воробьев (Витя), Александр Сирин (Скабический), Александр Наумов (Гоша), Егор Баринов (Комиссаров), Владислав Ветров (Архипов), Александр Печенин (Толик), Дмитрий Калистратов (Виталий Вильегорский)

  • Описание:
    Конец 1980-х. Павел Шарманов, будучи студентом авиационного института, всегда бредящий небом, начинал сторожем в музее авиации под открытым небом. Эта работа стремительно и кардинально изменила его дальнейшую жизнь.
    1990-е. Перестройка. Деньги, Влacть, взятки, предательство друзей. Шарманов - основатель и владелец крупнейшей авиационной компании в стране. Все блага мира у его ног. Бери, что хочешь. Единственно, что недоступно успешному молодому мужчине - любовь. Он не ищет ее, но она найдет его «совсем нежданно», закрутит в лихом вихре, поднимет высоко в небеса, заставит чувствовать, парить и не придавать значения материальному...
    Чем выше и быстрее взлетаешь, тем быстрее и больнее падаешь. Любовь милосердна, но порой и жестока, и как любить, каждый решает сам...
  • Рейтинг:



  • Качество: WEBRip
  • Формат: :AVI
  • Видео кодек: XviD
  • Аудио кодек: AC3
  • Видео: 720x384 (1.875), 1469 kbps, 24 fps, 0,221 bpp
  • Аудио: 2.0 / 44 kHz / 128 kbps / 16 bit
  • Релиз от: GEKADOL
    Не нашли то, что искали? Для вас "Стол заказов" "Жмём сюда!"

    Код:

    General
    Complete name                            : D:\Фильмы\Nebo.padsh1h.2014.O.WEBRip.1400MB.avi
    Format                                   : AVI
    Format/Info                              : Audio Video Interleave
    File size                                : 1.37 GiB
    Duration                                 : 2h 1mn
    Overall bit rate                         : 1 607 Kbps
    Writing application                      : VirtualDubMod 1.5.10.3 | www.virtualdub-fr.org || (build 2550/release)
    Writing library                          : VirtualDubMod build 2550/release

    Video
    ID                                       : 0
    Format                                   : MPEG-4 Visual
    Format profile                           : Advanced Simple@L5
    Format settings, BVOP                    : 2
    Format settings, QPel                    : No
    Format settings, GMC                     : No warppoints
    Format settings, Matrix                  : Default (MPEG)
    Codec ID                                 : XVID
    Codec ID/Hint                            : XviD
    Duration                                 : 2h 1mn
    Bit rate                                 : 1 469 Kbps
    Width                                    : 720 pixels
    Height                                   : 384 pixels
    Display aspect ratio                     : 1.875
    Frame rate                               : 24.000 fps
    Color space                              : YUV
    Chroma subsampling                       : 4:2:0
    Bit depth                                : 8 bits
    Scan type                                : Progressive
    Compression mode                         : Lossy
    Bits/(Pixel*Frame)                       : 0.221
    Stream size                              : 1.25 GiB (91%)
    Writing library                          : XviD 1.2.1 (UTC 2008-12-04)

    Audio
    ID                                       : 1
    Format                                   : AC-3
    Format/Info                              : Audio Coding 3
    Mode extension                           : CM (complete main)
    Codec ID                                 : 2000
    Duration                                 : 2h 1mn
    Bit rate mode                            : Constant
    Bit rate                                 : 128 Kbps
    Channel(s)                               : 2 channels
    Channel positions                        : Front: L R
    Sampling rate                            : 44.1 KHz
    Bit depth                                : 16 bits
    Compression mode                         : Lossy
    Stream size                              : 112 MiB (8%)
    Alignment                                : Split accross interleaves
    Interleave, duration                     : 42 ms (1.00 video frame)
    Interleave, preload duration             : 500 ms


    Скриншоты:


    piratbit.pw



  • Скачать Небо падших через торрент http://i67.fastpic.ru/big/2014/0820/f1/5febfa907412e7adc11c5b8cc5781bf1.jpg Скачать фильм Небо падших через торрент бесплантно в хорошем качестве Описание: Конец 1980-х. Павел Шарманов, будучи студентом авиационного института, всегда бредящий небом, начинал сторожем в музее авиации ... 9.8 10 40
    Info! Золотая раздача, скачанное не засчитывается.
    Торрент: Зарегистрирован [2014-08-20 03:58] · скачан: 1 837 раз
    Статус: √ проверено
    Размер: 1.37 GB
    Как cкачать? Как скачать Небо падших через торрент | qTorrent

    % Раздел Тема Автор DL S | L
    Наши фильмы (HD, WEB-DL 720p, 1080p) [ 2.27 GB ] Небо падших [2014 WEB-DL 720p] smaster Скачать
    1 | 0

    28-11-2019 20:33  

    Отключить всю рекламу на сайте

    21-08-2014 16:17 Небо падших Скачать торрент  

    Хороший фильм, спасибо.piratbit.pw



    28-08-2014 19:52 Небо падших Скачать торрент  

    Действительно хороший фильм-жизненный.piratbit.pw



    05-09-2014 07:04 Небо падших Скачать торрент  

    не уверен, но скачаю, спасибоpiratbit.pw



    17-09-2014 16:18 Небо падших Скачать торрент  

    смотрел на работе, пару раз прерывался, но потом посмотрел полностью, мне понравился, сослуживцам тожеpiratbit.pw



    01-10-2014 15:25 Небо падших Скачать торрент  

    dmitriyrams писал(а):

    Хороший фильм, спасибо.

    смотреть можно...но немного Вилкова загибает!piratbit.pw



      Дорогой пользователь! Огромная просьба, поблагодарите релизера, оцените раздачу и оставьте свои комментарий, если Вы скачали Небо падших через торрент бесплатно! Внесите свою лепту в развитие PiratBit!
      Комментировать посты могут только пользователи прошедшие не сложную регистрацию
      Показать сообщения:    

      Небо падших через торрент
      Скачать бесплатно Небо падших
      Небо падших скачать торрент
      Небо падших смотреть онлайн
      Cкачать фильм Небо падших бесплатно
      Небо падших скачать торрент в хорошем качестве
      Небо падших смотреть онлайн бесплатно в хорошем качестве


      Вы не можете начинать темы
      Вы не можете отвечать на сообщения
      Вы не можете редактировать свои сообщения
      Вы не можете удалять свои сообщения
      Вы не можете голосовать в опросах
      Вы не можете прикреплять файлы к сообщениям
      Вы можете скачивать файлы