1 сезон

3 сезон

iTunes

1

iTunes

DUB Netflix

iTunes

13

1 сезон

RePack

30

Deluxe

pack

Легкие деньги

ВАЖНО

ИГРА 18+

pack

RePack

MK11

RePack

jed

RePack

fifa19

RePack

RDR2

RePack

NEED FOR SPEED™ PAYBACK

4 сезон

9 сезон

Бесстыжие 9 сезон

Все сериалы

все сериалы на PB.wtf

RePack

FAR CRY 5

Anonymous, добрый вечер, мы не успеваем до 1 числа собрать деньги на оплату серверов, помогите нам пожалуйста в это трудное время. В качестве благодарности мы отключим Вам всю рекламу на сайте (укажите свой ник в строку Ваше имя)!

×
  
Magnet ссылка

Хороший человек / A Good Man (Киони Ваксман) [2014 г., боевик, DVDRip, Любительский одноголосый] piratbit.pw

Хороший человек через торрент piratbit.pw

Размер: 1.4 GB | Добавлен: 6 лет 9 мес. назад | Торрент скачан:376 раз
Скачать  

18-08-2014 19:40 Хороший человек Скачать торрент  

Хороший человек / A Good Man
Год выпуска: 2014
Страна: США, Steamroller Productions, Voltage Pictures
Жанр: боевик
Продолжительность: 01:43:05
Перевод: Любительский одноголосый [Lord32x]
Субтитры: Нет

Режиссер: Киони Ваксман
Продюссер: Филлип Б. Голдфайн, Бинь Дань, Бенжамин Сакс
Сценарий: Киони Ваксман

Премьера в мире: 19 августа 2014

IMDB


В ролях: Стивен Сигал, Виктор Уэбстер, Ци Ма, Рон Балики, Юлия Вердес, Massimo Dobrovic, Элиас Феркин

Описание: Александр — идеальный солдат, но во время миссии в Ираке, на его руках умирает маленькая девочка, после чего он решил отойти от дел. Сэм Хуан — силовик, то ли связанный с Триадами, то ли воюющий против них, отправил, хорошо заплатив, безопасным путем свою маленькую сестру Миа в США. Мистер Чэн гнусным образом вешает на Сэма убийство, которое он совершил, а также похищает его сестру и передает бандитам. Александр решается помочь Сэму вернуть сестру и покончить с Триадой. Число жертв растет, Александр возвращается в то, что умеет делать лучше всего — это убивать.

Качество: DVDRip
Формат: AVI
Видео кодек: XviD
Аудио кодек: AC3
Видео: MPEG 4 XviD, 1548 Кбит/с, 720:400, 23.976 кадр/с
Аудио#1: Русский ( AC3, 6 ch, 384 Кбит/с, 48.0 КГц, 16 бит)
скриншот  скриншот  скриншот  





Общее
Полное имя : E:\A.Good.Man.2014.DVDRip.GIPERWAREZ.avi
Формат : AVI
Формат/Информация : Audio Video Interleave
Размер файла : 1,40 Гбайт
Продолжительность : 1 ч. 43 м.
Общий поток : 1941 Кбит/сек
Программа кодирования : VirtualDubMod 1.5.10.3 | www.virtualdub-fr.org || (build 2550/release)
Библиотека кодирования : VirtualDubMod build 2550/release

Видео
Идентификатор : 0
Формат : MPEG-4 Visual
Профиль формата : Advanced Simple@L5
Параметр BVOP формата : 1
Параметр QPel формата : Нет
Параметр GMC формата : Без точки перехода
Параметр матрицы формата : Default (H.263)
Режим смешивания : Сжатый битовый поток
Идентификатор кодека : XVID
Идентификатор кодека/Подсказка : XviD
Продолжительность : 1 ч. 43 м.
Битрейт : 1548 Кбит/сек
Ширина : 720 пикселей
Высота : 400 пикселей
Соотношение сторон : 16:9
Частота кадров : 23,976 кадра/сек
Цветовое пространство : YUV
Субдискретизация насыщенности : 4:2:0
Битовая глубина : 8 бит
Тип развёртки : Прогрессивная
Метод сжатия : С потерями
Бит/(Пиксели*Кадры) : 0.224
Размер потока : 1,11 Гбайт (80%)
Библиотека кодирования : XviD 1.2.1 (UTC 2008-12-04)

Аудио
Идентификатор : 1
Формат : AC-3
Формат/Информация : Audio Coding 3
Расширение режима : CM (complete main)
Параметр Endianness формата : Big
Идентификатор кодека : 2000
Продолжительность : 1 ч. 43 м.
Вид битрейта : Постоянный
Битрейт : 384 Кбит/сек
Каналы : 6 каналов
Расположение каналов : Front: L C R, Side: L R, LFE
Частота : 48,0 КГц
Битовая глубина : 16 бит
Метод сжатия : С потерями
Размер потока : 283 Мбайт (20%)
Выравнивание : Разделение по промежуткам
Продолжительность промежутка : 42 мс. (1,00 видеокадр)
Время предзагрузки промежутка : 500 мс.


Хороший человек скачать торрент


piratbit.pw



Скачать Хороший человек через торрент https://pic1.kartinco.top/images/61/aco7c.jpg Скачать фильм Хороший человек через торрент бесплантно в хорошем качестве Описание: Александр — идеальный солдат, но во время миссии в Ираке, на его руках умирает маленькая девочка, после чего он решил отойти от ... 9.2 10 22
Торрент: Зарегистрирован [2014-08-18 19:40] · скачан: 376 раз
Статус: T временная
Размер: 1.4 GB
Как cкачать? Как скачать Хороший человек через торрент | UTorrent

% Раздел Тема Автор DL S | L
T Фильмы (WEB-DL 720p, 1080p) [ 4.25 GB ] Хороший человек / A Good Man [2014 WEB-DL 1080p Любительский одноголосый] Teagun Скачать
1 | 0

28-11-2019 20:33  

Отключить всю рекламу на сайте

18-08-2014 21:12 Хороший человек Скачать торрент  

Жирный Сигал убивает :)piratbit.pw



19-08-2014 16:59 Хороший человек Скачать торрент  

бюджет $7 000 000
рейтинг 5.00

не понятно.....глянем.... piratbit.pw



20-08-2014 15:15 Хороший человек Скачать торрент  

как фильм ????piratbit.pw



21-08-2014 15:02 Хороший человек Скачать торрент  

zik-2 писал(а):

бюджет $7 000 000
рейтинг 5.00

не понятно.....глянем....

глянул, всё понятно УГ..НО....(рейтинг не ошибается)piratbit.pw



23-08-2014 15:20 Хороший человек Скачать торрент  

Фильм нудный, сюжет и озвучна- полная Л А Ж А! piratbit.pw



    Дорогой пользователь! Огромная просьба, поблагодарите релизера, оцените раздачу и оставьте свои комментарий, если Вы скачали Хороший человек через торрент бесплатно! Внесите свою лепту в развитие PiratBit!
    Комментировать посты могут только пользователи прошедшие не сложную регистрацию
    Показать сообщения:    

    Хороший человек через торрент
    Скачать бесплатно Хороший человек
    Хороший человек скачать торрент
    Хороший человек смотреть онлайн
    Cкачать фильм Хороший человек бесплатно
    Хороший человек скачать торрент в хорошем качестве
    Хороший человек смотреть онлайн бесплатно в хорошем качестве


    Вы не можете начинать темы
    Вы не можете отвечать на сообщения
    Вы не можете редактировать свои сообщения
    Вы не можете удалять свои сообщения
    Вы не можете голосовать в опросах
    Вы не можете прикреплять файлы к сообщениям
    Вы можете скачивать файлы