1 сезон

1 сезон

iTunes

1

КиноПоиск HD

Кинопоиск HD

iTunes

13

1 сезон

RePack

30

Deluxe

ВАЖНО

ИГРА 18+

pack

RePack

MK11
pack

Легкие деньги

RePack

jed

RePack

fifa19

RePack

RDR2

RePack

NEED FOR SPEED™ PAYBACK

4 сезон

9 сезон

Бесстыжие 9 сезон

Все сериалы

все сериалы на PB.wtf

RePack

FAR CRY 5
  
Magnet ссылка

Сломленная / Broken (Саймон Бойес / Simon Boyes, Адам Мэйсон / Adam Mason) [2006 г., ужасы, триллер, DVDRip, Профессиональный одноголосый + Оригинал] piratbit.pw

Сломленная через торрент piratbit.pw

Размер: 1.38 GB | Добавлен: 6 лет 8 мес. назад | Торрент скачан:181 раз
Скачать  

16-08-2014 20:24 Сломленная Скачать торрент  

Сломленная / Broken
Год выпуска: 2006

Страна: Великобритания "Brand Mason Ltd."
Жанр: ужасы, триллер
Продолжительность: 01:30:08
Перевод: Профессиональный одноголосый + Оригинал
Субтитры: отсутствуют

Режиссер: Саймон Бойес, Адам Мэйсон
Бюджет: £500 000
Премьера в мире: 22 апреля 2006





В ролях: Надя Брэнд, Эрик М. Колвин, Эбби Стирлинг, Меган Ван Керро, Шесс Дэйвс, Рэйчел Тауненд, Оливия Хилл, Атеш Сали, Гари Маккэй

Описание: Героиня фильма пришла домой после удачного свидания, поцеловала перед сном свою шестилетнюю дочку и…оказалась утром в лесу наедине с маньяком - садистом...

Доп. информация: На редкость садистский фильм. Включает в себя несколько неприятных "мясных" сцен. Рекомендован к просмотру на пустой желудок.

Качество: DVDRip
Формат: AVI
Видео кодек: XviD
Видео: 1823 Кбит/сек, 720х400, 25,000 кадров/сек
Аудио#1: MP3, 128 Кбит/сек, 2 канала, 48,0 КГц - русский
Аудио#2: AC3, 224 Кбит/сек, 2 канала, 48,0 КГц - английский

Релиз от: makarevich






Формат : AVI
Формат/Информация : Audio Video Interleave
Размер файла : 1,38 Гбайт
Продолжительность : 1 ч. 30 м.
Общий поток : 2190 Кбит/сек
Программа кодирования : VirtualDubMod 1.5.10.2 (build 2540/release)
Библиотека кодирования : VirtualDubMod build 2540/release

Видео
Идентификатор : 0
Формат : MPEG-4 Visual
Профиль формата : Simple@L3
Параметр BVOP формата : Нет
Параметр QPel формата : Нет
Параметр GMC формата : Без точки перехода
Параметр матрицы формата : Default (H.263)
Идентификатор кодека : XVID
Идентификатор кодека/Подсказка : XviD
Продолжительность : 1 ч. 30 м.
Битрейт : 1823 Кбит/сек
Ширина : 720 пикселей
Высота : 400 пикселей
Соотношение сторон : 16:9
Частота кадров : 25,000 кадров/сек
Цветовое пространство : YUV
Субдискретизация насыщенности : 4:2:0
Битовая глубина : 8 бит
Тип развёртки : Прогрессивная
Метод сжатия : С потерями
Бит/(Пиксели*Кадры) : 0.253
Размер потока : 1,15 Гбайт (83%)
Библиотека кодирования : XviD 1.2.0.dev47 (UTC 2006-11-01)

Аудио #1
Идентификатор : 1
Формат : MPEG Audio
Версия формата : Version 1
Профиль формата : Layer 3
Режим : Joint stereo
Идентификатор кодека : 55
Идентификатор кодека/Подсказка : MP3
Продолжительность : 1 ч. 30 м.
Вид битрейта : Постоянный
Битрейт : 128 Кбит/сек
Каналы : 2 канала
Частота : 48,0 КГц
Метод сжатия : С потерями
Размер потока : 82,4 Мбайт (6%)
Выравнивание : Соединение по промежуткам
Продолжительность промежутка : 40 мс. (1,00 видеокадр)
Время предзагрузки промежутка : 504 мс.
Библиотека кодирования : LAME3.90
Настройки программы : -m j -V 4 -q 5 -lowpass 15.3 -b 128

Аудио #2
Идентификатор : 2
Формат : AC-3
Формат/Информация : Audio Coding 3
Расширение режима : CM (complete main)
Параметр Endianness формата : Big
Идентификатор кодека : 2000
Продолжительность : 1 ч. 30 м.
Вид битрейта : Постоянный
Битрейт : 224 Кбит/сек
Каналы : 2 канала
Расположение каналов : Front: L R
Частота : 48,0 КГц
Битовая глубина : 16 бит
Метод сжатия : С потерями
Размер потока : 144 Мбайт (10%)
Выравнивание : Разделение по промежуткам
Продолжительность промежутка : 40 мс. (1,00 видеокадр)
Время предзагрузки промежутка : 500 мс.


Сломленная Broken 2006 скачать торрент


piratbit.pw



Скачать Сломленная через торрент https://pic.kartinco.top/new/img/2014-08/17/lvql5fardb8vejbey4r9s8jfh.jpg Скачать фильм Сломленная через торрент бесплантно в хорошем качестве Описание: Героиня фильма пришла домой после удачного свидания, поцеловала перед сном свою шестилетнюю дочку и…оказалась утром в лесу ... 9 10 10
Торрент: Зарегистрирован [2014-08-16 20:24] · скачан: 181 раз
Статус: √ проверено
Размер: 1.38 GB
Как cкачать? Как скачать Сломленная через торрент | UTorrent

% Раздел Тема Автор DL S | L
Зарубежные сериалы [ 7.81 GB ] Сломленный / Broken / Сезон: 1 / Серии: 1-6 из 6 [2017 WEB-DL 1080p] [MVO] killermax2013 Скачать
1 | 0
T Фильмы (WEB-DL 720p, 1080p) [ 4.32 GB ] Недосломленная / Pretty Broken [2018 WEB-DL 1080p] MVO [HDRezka Studio] bober100 Скачать
1 | 0
T Фильмы (мультфильмы) cо спонсором показа (Новинки AVI/MKV) [ 1.36 GB ] Сломленный призрак / Broken Ghost [2017 WEB-DLRip] MVO ["Синема УС"] bober100 Скачать
2 | 0
T Фильмы (мультфильмы) cо спонсором показа (Новинки AVI/MKV) [ 1.37 GB ] Сломленный / Broken [2018 DVDRip] MVO ["Синема УС"] bober100 Скачать
1 | 0
Зарубежные сериалы [ 8.05 GB ] Сломленный / Broken / Сезон: 1 / Серии: 1-6 из 6 [2017 HDTVRip 1080p] [MVO] killermax2013 Скачать
1 | 0
Зарубежные сериалы [ 3.95 GB ] Сломленный / Broken / Сезон: 1 / Серии: 1-6 из 6 [2017 HDTVRip] [MVO] killermax2013 Скачать
1 | 1
Фильмы 2012 [ 1.5 GB ] Сломленные / Broken [2012 HDRip - ] MrKuzj Скачать
1 | 0

28-11-2019 20:33  

Отключить всю рекламу на сайте

17-08-2014 16:35 Сломленная Скачать торрент  

Спасибки! Фильм на любителя, обилие жестокости, повышенный натурализм. Но, чем-то цепляет.piratbit.pw



17-08-2014 19:36 Сломленная Скачать торрент  

mitra7612
поддерживаю, ужастик с оригинальным сюжетом.
в отличие от большинства наводнивших в последнее время шедевров.
хотя ужастики не смотрю, этот посмотрел на перемотке.
режиссеры не зря лавэ потратили, тему раскрыли интересненько...piratbit.pw



    Дорогой пользователь! Огромная просьба, поблагодарите релизера, оцените раздачу и оставьте свои комментарий, если Вы скачали Сломленная через торрент бесплатно! Внесите свою лепту в развитие PiratBit!
    Комментировать посты могут только пользователи прошедшие не сложную регистрацию
    Показать сообщения:    

    Сломленная через торрент
    Скачать бесплатно Сломленная
    Сломленная скачать торрент
    Сломленная смотреть онлайн
    Cкачать фильм Сломленная бесплатно
    Сломленная скачать торрент в хорошем качестве
    Сломленная смотреть онлайн бесплатно в хорошем качестве


    Вы не можете начинать темы
    Вы не можете отвечать на сообщения
    Вы не можете редактировать свои сообщения
    Вы не можете удалять свои сообщения
    Вы не можете голосовать в опросах
    Вы не можете прикреплять файлы к сообщениям
    Вы можете скачивать файлы