1 сезон

3 сезон

iTunes

1

iTunes

DUB Netflix

iTunes

13

1 сезон

RePack

30

Deluxe

pack

Легкие деньги

ВАЖНО

ИГРА 18+

pack

RePack

MK11

RePack

jed

RePack

fifa19

RePack

RDR2

RePack

NEED FOR SPEED™ PAYBACK

4 сезон

9 сезон

Бесстыжие 9 сезон

Все сериалы

все сериалы на PB.wtf

RePack

FAR CRY 5

Anonymous, доброе утро, мы не успеваем до 1 числа собрать деньги на оплату серверов, помогите нам пожалуйста в это трудное время. В качестве благодарности мы отключим Вам всю рекламу на сайте (укажите свой ник в строку Ваше имя)!

×
  
Magnet ссылка

Парни из Абу-Грейб / Boys of Abu Ghraib (Люк Моран / Luke Moran) [2014, США, триллер, драма, военный, HDRip, Любительский (одноголосый) [qwerty] piratbit.pw

Парни из Абу-Грейб через торрент piratbit.pw

Размер: 1.46 GB | Добавлен: 6 лет 10 мес. назад | Торрент скачан:276 раз
Скачать  

14-08-2014 11:52 Парни из Абу-Грейб Скачать торрент  

Парни из Абу-Грейб / Boys of Abu Ghraib


  • Год выпуска: 2014
  • Страна: США
  • Жанр: триллер, драма, военный
  • Продолжительность: 01:38:03
  • Перевод: Любительский (одноголосый) [qwerty]

  • Режиссер: Люк Моран / Luke Moran
  • В ролях:

    Люк Моран (Jack Farmer), Шон Эстин (Tanner), Сара Пэкстон (Peyton), Омид Абтахи (Ghazi Hammoud), Джон Хёрд (Sam Farmer), Майкл Уэлш (Pits), Джон Робинсон (Ryan Fox), Элайджа Келли (Tunde), Скотт Гордон-Паттерсон (Captain Hayes), Жермен Уильямс (Gable), Кру Эннис (Shaw), Бернхард Форхер (Gates)

  • Описание:
    После терактов 11 сентября Джек Фармер идет в армию, чтобы поучаствовать в военных действиях в Ираке и попадает служить в иракскую тюрьму Абу-Грейб, где он заводит дружбу с одним из иракских заключенных.
  • Рейтинг:



  • Качество: HDRip
  • Формат: :AVI
  • Видео кодек: XviD
  • Аудио кодек: AC3
  • Видео: 720x304 (2.35:1), 1673 kbps, 25 fps, 0,306 bpp
  • Аудио: 5.1 / 48 kHz / 448 kbps / 16 bit
  • Релиз от: GEKADOL
    Не нашли то, что искали? Для вас "Стол заказов" "Жмём сюда!"

    Код:

    General
    Complete name                            : G:\Parni.iz.Aby.Grejb.2014.HDRi.avi
    Format                                   : AVI
    Format/Info                              : Audio Video Interleave
    File size                                : 1.46 GiB
    Duration                                 : 1h 38mn
    Overall bit rate                         : 2 132 Kbps
    Writing application                      : VirtualDubMod 1.5.10.2 (build 2540/release)
    Writing library                          : VirtualDubMod build 2540/release

    Video
    ID                                       : 0
    Format                                   : MPEG-4 Visual
    Format profile                           : Advanced Simple@L5
    Format settings, BVOP                    : 2
    Format settings, QPel                    : No
    Format settings, GMC                     : No warppoints
    Format settings, Matrix                  : Default (MPEG)
    Codec ID                                 : XVID
    Codec ID/Hint                            : XviD
    Duration                                 : 1h 38mn
    Bit rate                                 : 1 674 Kbps
    Width                                    : 720 pixels
    Height                                   : 304 pixels
    Display aspect ratio                     : 2.35:1
    Frame rate                               : 25.000 fps
    Color space                              : YUV
    Chroma subsampling                       : 4:2:0
    Bit depth                                : 8 bits
    Scan type                                : Progressive
    Compression mode                         : Lossy
    Bits/(Pixel*Frame)                       : 0.306
    Stream size                              : 1.15 GiB (79%)
    Writing library                          : XviD 1.2.1 (UTC 2008-12-04)

    Audio
    ID                                       : 1
    Format                                   : AC-3
    Format/Info                              : Audio Coding 3
    Mode extension                           : CM (complete main)
    Codec ID                                 : 2000
    Duration                                 : 1h 38mn
    Bit rate mode                            : Constant
    Bit rate                                 : 448 Kbps
    Channel(s)                               : 6 channels
    Channel positions                        : Front: L C R, Side: L R, LFE
    Sampling rate                            : 48.0 KHz
    Bit depth                                : 16 bits
    Compression mode                         : Lossy
    Stream size                              : 314 MiB (21%)
    Alignment                                : Split accross interleaves
    Interleave, duration                     : 40 ms (1.00 video frame)
    Interleave, preload duration             : 500 ms


    Скриншоты:


    piratbit.pw



  • Скачать Парни из Абу-Грейб через торрент http://i66.fastpic.ru/big/2014/0814/54/7dca10825aca7ead9c79a56bdfe7e054.jpg Скачать фильм Парни из Абу-Грейб через торрент бесплантно в хорошем качестве Описание: После терактов 11 сентября Джек Фармер идет в армию, чтобы поучаствовать в военных действиях в Ираке и попадает служить в ... 10 10 13
    Торрент: Зарегистрирован [2014-08-14 11:52] · скачан: 276 раз
    Статус: T временная
    Размер: 1.46 GB
    Как cкачать? Как скачать Парни из Абу-Грейб через торрент | UTorrent

    % Раздел Тема Автор DL S | L
    Фильмы 2014 [DVDrip, WEB-DLRip, HDrip] [ 709 MB ] Парни из Абу-Грейб / Boys of Abu Ghraib [2014 военный HDRip многоголосый закадровый] coc900 Скачать
    1 | 0
    Фильмы с авторской озвучкой [ 1.46 GB ] Парни из Абу-Грейб / Boys of Abu Ghraib [2014 военный HDRip Авторский одноголосый [Алексей Матвеев] Ворон Скачать
    1 | 0
    T Фильмы 2014 (Звук TS, Cam, VO, DVO) [ 748 MB ] Парни из Абу-Грейб / Случай в тюрьме Абу Грейб / Boys of Abu Ghraib [2014 военный HDRip] VO / qwerty Mr. Freeman Скачать
    1 | 0

    28-11-2019 20:33  

    Отключить всю рекламу на сайте

    16-08-2014 05:35 Парни из Абу-Грейб Скачать торрент  

    я так понимаю пока никто фильм не смотрел?
    piratbit.pw



    21-08-2014 15:05 Парни из Абу-Грейб Скачать торрент  

    посмотрел, смысл есть...только затянут сильно сюжет, можно первые 20 мин. посмотреть и последние 3 мин. - все будет понятно.piratbit.pw



      Дорогой пользователь! Огромная просьба, поблагодарите релизера, оцените раздачу и оставьте свои комментарий, если Вы скачали Парни из Абу-Грейб через торрент бесплатно! Внесите свою лепту в развитие PiratBit!
      Комментировать посты могут только пользователи прошедшие не сложную регистрацию
      Показать сообщения:    

      Парни из Абу-Грейб через торрент
      Скачать бесплатно Парни из Абу-Грейб
      Парни из Абу-Грейб скачать торрент
      Парни из Абу-Грейб смотреть онлайн
      Cкачать фильм Парни из Абу-Грейб бесплатно
      Парни из Абу-Грейб скачать торрент в хорошем качестве
      Парни из Абу-Грейб смотреть онлайн бесплатно в хорошем качестве


      Вы не можете начинать темы
      Вы не можете отвечать на сообщения
      Вы не можете редактировать свои сообщения
      Вы не можете удалять свои сообщения
      Вы не можете голосовать в опросах
      Вы не можете прикреплять файлы к сообщениям
      Вы можете скачивать файлы