1 сезон

3 сезон

iTunes

1

iTunes

DUB Netflix

iTunes

13

1 сезон

RePack

30

Deluxe

pack

Легкие деньги

ВАЖНО

ИГРА 18+

pack

RePack

MK11

RePack

jed

RePack

fifa19

RePack

RDR2

RePack

NEED FOR SPEED™ PAYBACK

4 сезон

9 сезон

Бесстыжие 9 сезон

Все сериалы

все сериалы на PB.wtf

RePack

FAR CRY 5

Anonymous, доброе утро, мы не успеваем до 1 числа собрать деньги на оплату серверов, помогите нам пожалуйста в это трудное время. В качестве благодарности мы отключим Вам всю рекламу на сайте (укажите свой ник в строку Ваше имя)!

×
  
Magnet ссылка

Пассаж / Mall (Джозеф Хан / Joseph Hahn) [2014, США, драма, BDRip, Любительский (одноголосый)[datynet] piratbit.pw

Пассаж через торрент piratbit.pw

Размер: 1.24 GB | Добавлен: 6 лет 10 мес. назад | Торрент скачан:158 раз
Скачать  

13-08-2014 05:05 Пассаж Скачать торрент  

Пассаж / Mall


  • Год выпуска: 2014
  • Страна: США
  • Жанр: драма
  • Продолжительность: 01:28:18
  • Перевод: Любительский (одноголосый)[datynet]

  • Режиссер: Джозеф Хан / Joseph Hahn
  • В ролях:

    Петер Стормаре (Barry), Винсент Д’Онофрио (Danny), Джина Гершон (Donna), Камерон Монахэн (Jeff), Сианоа Смит-МакФи (Shel), Мими Роджерс, Джеймс Фрешвилл (Mal), Гбенга Акиннагбе, Джон Хенсли (Lenny), Джэми Ноэль (Lingerie Model), В.К. Кэннон (Sales Girl), Майкл Патрик МакГилл (Ed)

  • Описание:
    Жизнь Малькольма потеряла смысл. Единственное, что еще способно пробудить в нем какие-то эмоции, это наркотики. Однажды он набивает сумку оружием и самодельными бомбами и отправляется в торговый центр. Этот день изменит не только его жизнь, но и жизнь людей, оказавшихся волей судьбы в эпицентре событий.
  • Рейтинг:



  • Качество: BDRip
  • Формат: :AVI
  • Видео кодек: XviD
  • Аудио кодек: MP3
  • Видео: 720x304 (2.35:1), 1808 kbps, 23,976 fps, 0,345 bpp
  • Аудио: 2.0 / 44 kHz / 192 kbps
  • Релиз от: GEKADOL
    Не нашли то, что искали? Для вас "Стол заказов"

    Код:

    General
    Complete name                            : D:\Фильмы\Passazh 2014 BDRip.avi
    Format                                   : AVI
    Format/Info                              : Audio Video Interleave
    File size                                : 1.24 GiB
    Duration                                 : 1h 28mn
    Overall bit rate                         : 2 010 Kbps
    Writing library                          : VirtualDub build 34753/release

    Video
    ID                                       : 0
    Format                                   : MPEG-4 Visual
    Format profile                           : Advanced Simple@L5
    Format settings, BVOP                    : 2
    Format settings, QPel                    : No
    Format settings, GMC                     : No warppoints
    Format settings, Matrix                  : Default (H.263)
    Codec ID                                 : XVID
    Codec ID/Hint                            : XviD
    Duration                                 : 1h 28mn
    Bit rate                                 : 1 808 Kbps
    Width                                    : 720 pixels
    Height                                   : 304 pixels
    Display aspect ratio                     : 2.35:1
    Frame rate                               : 23.976 fps
    Color space                              : YUV
    Chroma subsampling                       : 4:2:0
    Bit depth                                : 8 bits
    Scan type                                : Progressive
    Compression mode                         : Lossy
    Bits/(Pixel*Frame)                       : 0.345
    Stream size                              : 1.12 GiB (90%)
    Writing library                          : XviD 1.2.1 (UTC 2008-12-04)

    Audio
    ID                                       : 1
    Format                                   : MPEG Audio
    Format version                           : Version 1
    Format profile                           : Layer 3
    Codec ID                                 : 55
    Codec ID/Hint                            : MP3
    Duration                                 : 1h 28mn
    Bit rate mode                            : Constant
    Bit rate                                 : 192 Kbps
    Channel(s)                               : 2 channels
    Sampling rate                            : 44.1 KHz
    Compression mode                         : Lossy
    Stream size                              : 121 MiB (10%)
    Alignment                                : Split accross interleaves
    Interleave, duration                     : 42 ms (1.00 video frame)
    Interleave, preload duration             : 500 ms


    Скриншоты:


    piratbit.pw



  • Скачать Пассаж через торрент http://i68.fastpic.ru/big/2014/0813/d8/5b7a0ce4338cf7f8f59fb0a562d06ad8.jpg Скачать фильм Пассаж через торрент бесплантно в хорошем качестве Описание: Жизнь Малькольма потеряла смысл. Единственное, что еще способно пробудить в нем какие-то эмоции, это наркотики. Однажды он ... 9.8 10 5
    Торрент: Зарегистрирован [2014-08-13 05:05] · скачан: 158 раз
    Статус: T временная
    Размер: 1.24 GB
    Как cкачать? Как скачать Пассаж через торрент | UTorrent

    28-11-2019 20:33  

    Отключить всю рекламу на сайте

    13-08-2014 08:50 Пассаж Скачать торрент  

    отпишитесь пожалуйста интересная или нетpiratbit.pw



    15-08-2014 09:48 Пассаж Скачать торрент  

    MEXAHUK66 писал(а):

    отпишитесь пожалуйста интересная или нет

    Если нравятся фильмы с глубоким смыслом, заставляющие призадуматься о своей жизни, то фильм понравиться, в противном случае, не стоит смотреть, тут нет Ваших любимых перестрелок и взрывов, аля холивуд, тут есть смысл, тут есть философия, которую режиссёр пытается донести.piratbit.pw



      Дорогой пользователь! Огромная просьба, поблагодарите релизера, оцените раздачу и оставьте свои комментарий, если Вы скачали Пассаж через торрент бесплатно! Внесите свою лепту в развитие PiratBit!
      Комментировать посты могут только пользователи прошедшие не сложную регистрацию
      Показать сообщения:    

      Пассаж через торрент
      Скачать бесплатно Пассаж
      Пассаж скачать торрент
      Пассаж смотреть онлайн
      Cкачать фильм Пассаж бесплатно
      Пассаж скачать торрент в хорошем качестве
      Пассаж смотреть онлайн бесплатно в хорошем качестве


      Вы не можете начинать темы
      Вы не можете отвечать на сообщения
      Вы не можете редактировать свои сообщения
      Вы не можете удалять свои сообщения
      Вы не можете голосовать в опросах
      Вы не можете прикреплять файлы к сообщениям
      Вы можете скачивать файлы